<?xml version="1.0" standalone="no"?>
<!DOCTYPE svg PUBLIC "-//W3C//DTD SVG 1.1//EN" "http://www.w3.org/Graphics/SVG/1.1/DTD/svg11.dtd" >
<svg>
<metadata>
Created by FontForge 20090914 at Wed Sep  5 10:23:48 2012
 By Fekete Arpad,,,
Unicode Fonts for Ancient Scripts; George Douros; 2009
</metadata>
<defs>
<font id="Symbola" horiz-adv-x="2048" >
  <font-face 
    font-family="Symbola"
    font-weight="400"
    font-stretch="semi-condensed"
    units-per-em="2048"
    panose-1="5 2 1 2 1 7 7 7 7 7"
    ascent="1606"
    descent="-442"
    x-height="923"
    cap-height="1346"
    bbox="-576 -442 2458 1606"
    underline-thickness="20"
    underline-position="-432"
    unicode-range="U+0020-U+2981"
  />
    <missing-glyph />
    <glyph glyph-name="space" unicode=" " horiz-adv-x="512" 
 />
    <glyph glyph-name="exclam" unicode="!" horiz-adv-x="682" 
d="M418 185q32 -32 32 -76.5t-32 -76.5t-77 -32t-77 32t-32 76.5t32 76.5t77 32t77 -32zM341 383q-25 0 -29 47l-79 932v10q0 40 30 66q34 28 78 28t78 -28q30 -26 30 -66v-10l-79 -934q-4 -45 -29 -45z" />
    <glyph glyph-name="quotedbl" unicode="&#x22;" horiz-adv-x="809" 
d="M428 1283q0 -11 -7 -23l-272 -472q-10 -17 -25.5 -17t-15.5 12.5t78 243t95 274.5q16 38 66 38q81 0 81 -56zM701 1283q0 -11 -7 -23l-271 -472q-10 -17 -26 -17t-16 12.5t78 243t95 274.5q16 38 66 38q81 0 81 -56z" />
    <glyph glyph-name="numbersign" unicode="#" horiz-adv-x="1024" 
d="M985 382q0 -41 -68 -41h-185l-69 -394q-12 -68 -53 -68q-33 0 -33 35q0 11 4 33l69 394h-318l-69 -394q-12 -68 -53 -68q-33 0 -33 35q0 11 4 33l69 394h-143q-68 0 -68 41t68 41h158l56 318h-214q-68 0 -68 41t68 41h228l66 374q12 68 53 68q33 0 33 -35q0 -11 -4 -33
l-66 -374h318l66 374q12 68 53 68q33 0 33 -35q0 -11 -4 -33l-66 -374h100q68 0 68 -41t-68 -41h-114l-56 -318h170q68 0 68 -41zM721 741h-318l-56 -318h318z" />
    <glyph glyph-name="dollar" unicode="$" horiz-adv-x="964" 
d="M750 652q104 -112 104 -270t-97 -273t-246 -128v-89h-60v86q-155 10 -249 110.5t-94 255.5q0 97 89 97q38 0 63 -25t25 -63q0 -89 -88 -89q-14 0 -31 4q45 -214 285 -228v574q-161 41 -238 116q-105 105 -105 255.5t98.5 255t244.5 117.5v88h60v-86q152 -8 247.5 -99.5
t95.5 -240.5q0 -96 -88 -96q-38 0 -63.5 25.5t-25.5 63.5q0 88 89 88q17 0 30 -4q-50 190 -285 201v-521q159 -39 239 -125zM451 1298q-101 -10 -173 -80.5t-72 -172t69.5 -166t175.5 -87.5v506zM686 133.5q70 79.5 70 187t-67.5 182t-177.5 97.5v-560q105 14 175 93.5z" />
    <glyph glyph-name="percent" unicode="%" horiz-adv-x="1662" 
d="M1331 878q281 0 281 -456t-281 -456t-281 456t281 456zM1358 1470q0 -12 -17 -37l-1037 -1536q-21 -31 -41 -31q-41 0 -41 41q0 13 19 41l920 1364q-106 -70 -270 -70t-301 99q22 -86 22 -222q0 -453 -281 -453t-281 456t281 456q149 0 223 -142q165 -149 331 -149
q235 0 389 195q23 29 43 29q41 0 41 -41zM1493 351v141q0 150 -19 217q-35 130 -143.5 130t-143.5 -128q-18 -67 -18 -216v-145q0 -345 162 -345t162 346zM493 1051q0 205 1 205v-2q-5 132 -34 197l-84 81q-22 7 -46 7q-108 0 -143 -128q-18 -67 -18 -216v-145
q0 -345 162 -345t162 346z" />
    <glyph glyph-name="ampersand" unicode="&#x26;" horiz-adv-x="1593" 
d="M1205 18q81 0 153 59.5t76 170.5h52q-3 -130 -86.5 -211.5t-202.5 -81.5q-182 0 -361 156q-175 -156 -370 -156q-154 0 -262.5 87.5t-108.5 219.5q0 75 31 124.5t128 150.5l173 184q-84 214 -84 416q0 152 86 240.5t187.5 88.5t148.5 -97q35 -71 35 -167
q0 -136 -250 -414q57 -150 169.5 -314.5t170.5 -231.5q133 164 293 446q12 36 12 41q0 90 -146 90v64q81 -6 209.5 -6t239.5 6v-64q-125 -1 -191 -54q-44 -36 -114 -155q-175 -298 -271 -409q154 -183 283 -183zM748 1204q0 56 -15 110q-31 107 -108 107q-61 0 -107 -59
t-46 -201t61 -323q215 233 215 366zM314 523q-49 -81 -49 -193t45 -198q59 -114 172 -114q168 0 316 132q-78 78 -181 228t-172 296q-98 -94 -131 -151z" />
    <glyph glyph-name="quotesingle" unicode="'" horiz-adv-x="536" 
d="M428 1283q0 -11 -7 -23l-272 -472q-10 -17 -25.5 -17t-15.5 12.5t78 243t95 274.5q16 38 66 38q81 0 81 -56z" />
    <glyph glyph-name="parenleft" unicode="(" horiz-adv-x="682" 
d="M574 -332q0 -18 -19 -18q-11 0 -46 29q-226 186 -322 396t-96 507t96 507t322 396q35 29 46 29q19 0 19 -18q0 -8 -24 -32q-300 -295 -300 -882t300 -882q24 -24 24 -32z" />
    <glyph glyph-name="parenright" unicode=")" horiz-adv-x="682" 
d="M591 582q0 -297 -96 -507t-322 -396q-35 -29 -46 -29q-19 0 -19 18q0 8 24 32q300 295 300 882t-300 882q-24 24 -24 32q0 18 19 18q11 0 46 -29q226 -186 322 -396t96 -507z" />
    <glyph glyph-name="asterisk" unicode="*" horiz-adv-x="964" 
d="M824 1016q26 -12 26 -39.5t-16.5 -47t-35.5 -19.5t-31 9l-258 182l30 -319q0 -49 -56.5 -49t-56.5 49v5l29 314l-257 -182q-13 -9 -31.5 -9t-35.5 19.5t-17 47t27 39.5l287 132l-287 132q-27 13 -27 40t17 47t35.5 20t31.5 -9l257 -183l-29 319q0 49 56.5 49t56.5 -49v-5
l-30 -314l258 183q12 9 31 9t35.5 -20t16.5 -47t-26 -40l-287 -132z" />
    <glyph glyph-name="plus" unicode="+" horiz-adv-x="1591" 
d="M1421 582q0 -41 -37 -41h-547v-546q0 -39 -41 -39t-41 39v546h-546q-39 0 -39 41t39 41h546v548q0 37 41 37t41 -37v-548h547q37 0 37 -41z" />
    <glyph glyph-name="comma" unicode="," horiz-adv-x="512" 
d="M326 33q-33 -33 -83 -33t-78.5 32.5t-28.5 76t29 76t85 32.5t91 -58t35 -157q0 -152 -76.5 -274.5t-110.5 -122.5q-20 0 -20 22q0 8 14 23q148 157 148 352q0 30 -5 31z" />
    <glyph glyph-name="hyphen" unicode="-" horiz-adv-x="1591" 
d="M1421 582q0 -41 -37 -41h-1175q-39 0 -39 41t39 41h1175q37 0 37 -41z" />
    <glyph glyph-name="period" unicode="." horiz-adv-x="512" 
d="M333 185q32 -32 32 -76.5t-32 -76.5t-77 -32t-77 32t-32 76.5t32 76.5t77 32t77 -32z" />
    <glyph glyph-name="slash" unicode="/" horiz-adv-x="569" 
d="M569 1475q0 -6 -2 -13l-488 -1788q-7 -26 -40 -26q-39 0 -39 41q0 6 2 13l488 1788q7 26 40 26q39 0 39 -41z" />
    <glyph glyph-name="zero" unicode="0" horiz-adv-x="1043" 
d="M877 1156q83 -165 83 -482t-78 -477q-118 -242 -362 -242q-226 0 -344 209q-93 164 -93 490.5t76 486.5q117 247 359 247t359 -232zM787 564v260q0 216 -37 329q-61 190 -229.5 190t-229.5 -191q-37 -114 -37 -329q0 -41 0.5 -122t0.5 -121q0 -239 33 -360
q59 -220 231.5 -220t233.5 212q34 120 34 352z" />
    <glyph glyph-name="one" unicode="1" horiz-adv-x="1043" 
d="M190 64l76 -2q153 0 175 43q9 18 9 53v1087q-109 -54 -272 -54v64q250 0 379 133h10q29 0 35 -14q3 -6 3 -39v-1181q0 -33 8 -50q15 -33 117 -40h40.5h94.5v-64q-71 6 -136 6h-404q-64 0 -135 -6v64z" />
    <glyph glyph-name="two" unicode="2" horiz-adv-x="1043" 
d="M106 0v18q0 33 24 60l400 445q218 243 218 461q0 139 -72.5 239.5t-206.5 100.5q-97 0 -173 -59t-109 -153q7 2 17 2q121 0 121 -109q0 -46 -31 -78t-77 -32q-111 0 -111 116q0 157 116 267t287.5 110t299.5 -111t128 -293q0 -118 -77 -228q-44 -63 -165 -181l-428 -415
h416q136 0 156 16.5t46 185.5h52l-57 -362h-774z" />
    <glyph glyph-name="three" unicode="3" horiz-adv-x="1043" 
d="M954 356q0 -172 -134 -286.5t-300.5 -114.5t-290.5 82q-140 93 -140 244q0 53 32 87t83.5 34t85 -33.5t33.5 -84t-34.5 -82.5t-84.5 -32q-10 0 -20 1q46 -77 135 -118t185 -41q125 0 187 116q48 91 48 232t-51 230q-63 113 -197 113h-108q-33 0 -33 22.5t48 28.5
q33 1 65 3q124 8 183.5 105t59.5 241q0 102 -50.5 168.5t-149.5 66.5q-194 0 -278 -130h5q124 0 124 -105q0 -46 -29.5 -76t-76.5 -30t-76.5 29.5t-29.5 77.5q0 132 123 213q108 71 248.5 71t252.5 -71q130 -82 130 -212t-84 -230t-209 -141q145 -29 246.5 -132.5
t101.5 -245.5z" />
    <glyph glyph-name="four" unicode="4" horiz-adv-x="1043" 
d="M983 345h-208v-196q0 -30 9 -48q19 -37 185 -37h9v-64q-83 6 -142 6h-285q-56 0 -139 -6v64q47 -1 64 -1q110 0 130 38q9 17 9 48v196h-555v64l640 978q16 25 41.5 25t31.5 -17q2 -6 2 -38v-948h208v-64zM627 409v777l-509 -777h509z" />
    <glyph glyph-name="five" unicode="5" horiz-adv-x="1043" 
d="M278 770q109 106 273.5 106t275 -138.5t110.5 -323t-132.5 -322t-321.5 -137.5q-155 0 -266 113t-111 268q0 111 101 111q44 0 74.5 -29t30.5 -73t-30.5 -73.5t-74.5 -29.5q-18 0 -34 5q29 -101 115.5 -168t190.5 -67q145 0 224 136q49 85 49 274.5t-37 273.5
q-59 134 -178 134q-89 0 -147 -35t-99.5 -83t-49.5 -48q-29 0 -29 41v648q0 34 20 34q9 0 26 -6q166 -60 289.5 -60t270.5 62q12 5 18 5q20 0 20 -23q0 -16 -36 -56q-144 -161 -366 -161q-86 0 -176 27v-405z" />
    <glyph glyph-name="six" unicode="6" horiz-adv-x="1043" 
d="M277 684q84 206 263.5 206t296.5 -139t117 -327.5t-121 -328.5t-308 -140q-242 0 -353 247q-83 183 -83 458q0 205 80 385.5t240 276.5q111 66 226 66t191.5 -57.5t76.5 -165.5q0 -44 -26.5 -73t-68.5 -29t-69.5 28t-27.5 69q0 93 103 93h11q-57 85 -183 85
q-81 0 -155 -47q-210 -133 -210 -607zM767 371v104q0 160 -38 238q-63 129 -193 129t-199 -127q-57 -103 -57 -244q0 -206 38 -302q26 -67 82.5 -112t124.5 -45q140 0 206 136q36 74 36 223z" />
    <glyph glyph-name="seven" unicode="7" horiz-adv-x="1043" 
d="M969 1328q0 -32 -19 -59l-283 -395q-94 -131 -128 -356q-23 -151 -23 -449q0 -114 -95.5 -114t-95.5 114q0 384 256 784l232 329h-499q-117 0 -138 -13.5t-50 -188.5h-52l69 430h52q2 -20 14 -33q31 -34 253 -34h507v-15z" />
    <glyph glyph-name="eight" unicode="8" horiz-adv-x="1043" 
d="M954 349q0 -170 -130.5 -282t-301 -112t-302 99t-131.5 261q0 235 301 384q-55 32 -154 112q-91 99 -91 239t113.5 239t262 99t263.5 -85t115 -225q0 -194 -253 -323q93 -56 131 -81.5t75 -66.5q102 -113 102 -258zM807 1078q0 112 -86.5 186t-196 74t-199 -58
t-89.5 -153.5t106 -172.5q30 -22 257 -168q208 120 208 292zM851 276q0 76 -40 126t-117 102.5t-257 161.5q-244 -134 -244 -351q0 -130 99 -216.5t226.5 -86.5t230 73t102.5 191z" />
    <glyph glyph-name="nine" unicode="9" horiz-adv-x="1043" 
d="M954 687q0 -388 -220 -601q-135 -131 -303 -131q-120 0 -198 51q-92 59 -92 173q0 100 95 100q41 0 69 -27.5t28 -70t-33 -70.5q-27 -24 -63 -24q-6 0 -13 1q64 -76 205 -76q77 0 148 47q120 79 163 274q27 120 27 330q-82 -209 -263 -209t-298 139.5t-117 333.5
t129.5 327.5t310.5 133.5q102 0 187 -53q238 -148 238 -648zM763 878q0 202 -34 293q-62 167 -200 167t-209 -132q-43 -80 -43 -247v-86q0 -161 37 -238q64 -132 194.5 -132t199.5 129q55 103 55 246z" />
    <glyph glyph-name="colon" unicode=":" horiz-adv-x="547" 
d="M378 104q0 -42 -31 -73t-73.5 -31t-73.5 31t-31 73t31 73t73.5 31t73.5 -31t31 -73zM378 743q0 -42 -31 -73t-73.5 -31t-73.5 31t-31 73t31 73t73.5 31t73.5 -31t31 -73z" />
    <glyph glyph-name="semicolon" unicode=";" horiz-adv-x="569" 
d="M387 774q0 -45 -31.5 -76.5t-76.5 -31.5t-77 32t-32 76.5t32 76.5t76.5 32t76.5 -32t32 -77zM348 23q-26 -23 -73.5 -23t-76 32.5t-28.5 76t29 76t80 32.5q114 0 114 -211q0 -153 -69.5 -277t-100.5 -124q-20 0 -20 22q0 11 14 27q131 151 131 369z" />
    <glyph glyph-name="less" unicode="&#x3c;" horiz-adv-x="1591" 
d="M1421 31q0 -41 -41 -41q-8 0 -14 3l-1169 552q-27 13 -27 37t27 37l1169 552q6 3 14 3q41 0 41 -41q0 -26 -24 -37l-1090 -514l1090 -514q24 -11 24 -37z" />
    <glyph glyph-name="equal" unicode="=" horiz-adv-x="1591" 
d="M1421 380q0 -41 -37 -41h-1175q-39 0 -39 41t39 41h1175q37 0 37 -41zM1421 784q0 -41 -37 -41h-1175q-39 0 -39 41t39 41h1175q37 0 37 -41z" />
    <glyph glyph-name="greater" unicode="&#x3e;" horiz-adv-x="1591" 
d="M1421 582q0 -24 -27 -37l-1169 -552q-6 -3 -14 -3q-41 0 -41 41q0 26 24 37l1090 514l-1090 514q-24 11 -24 37q0 41 41 41q8 0 14 -3l1169 -552q27 -13 27 -37z" />
    <glyph glyph-name="question" unicode="?" horiz-adv-x="909" 
d="M504 185q32 -32 32 -76.5t-32 -76.5t-77 -32t-77 32t-32 76.5t32 76.5t77 32t77 -32zM743 1350q79 -73 79 -191.5t-98 -191.5q-270 -200 -270 -457v-72q0 -55 -26 -55t-26 49v92q0 267 181 461q69 74 69 182t-28 152q-49 80 -195 80q-187 0 -268 -139q114 0 114 -93.5
t-94 -93.5t-94 102.5t95.5 185.5t252.5 83q207 0 308 -94z" />
    <glyph glyph-name="at" unicode="@" horiz-adv-x="1500" 
d="M1391 652q0 -405 -196 -405q-70 0 -125.5 36.5t-68.5 100.5q-98 -137 -257.5 -137t-269 128.5t-109.5 294t109.5 293.5t272.5 128q124 0 226 -107q12 -15 38 -41q18 -16 63.5 -16t52.5 -6.5t7 -38.5v-466q0 -127 67 -127q141 0 141 322q0 483 -356 651q-117 55 -238 55
q-253 0 -422.5 -195t-169.5 -455t171.5 -452.5t430.5 -192.5q185 0 378 66l95 40q61 23 109.5 23t48.5 -20.5t-109 -56.5q-285 -96 -520 -96q-279 0 -465.5 205t-186.5 484.5t184 486t458 206.5q139 0 267 -63q180 -89 277 -262.5t97 -382.5zM1001 505v329q0 37 -26 76
q-91 139 -218.5 139t-199.5 -134q-60 -111 -60 -245t60 -246q73 -135 195 -135q82 0 165.5 68.5t83.5 147.5z" />
    <glyph glyph-name="A" unicode="A" horiz-adv-x="1484" 
d="M1417 0q-127 6 -297.5 6t-244.5 -6v61h5q157 0 157 59q0 29 -39 136l-70 192h-487l-61 -163q-34 -90 -34 -123q0 -51 52 -78q42 -23 97 -23v-61q-189 6 -239.5 6t-187.5 -6v61q174 2 219 133l409 1177q14 40 46 40t46 -40l425 -1231q21 -61 84 -75q19 -5 77 -5q19 0 43 1
v-61zM906 510l-222 641l-220 -641h442z" />
    <glyph glyph-name="B" unicode="B" horiz-adv-x="1346" 
d="M1278 360q0 -161 -135.5 -260.5t-302.5 -99.5h-772v61q62 -2 63 -2q113 0 134 45q5 11 5 42v1051q0 31 -5 42q-19 43 -152 43q-21 0 -45 -1v62h720q161 0 290 -83q148 -95 148 -247q0 -120 -98.5 -203t-227.5 -108q147 -16 262.5 -109t115.5 -233zM720 721
q129 0 221.5 82t92.5 202.5t-73 198t-186 77.5h-255q-53 0 -69.5 -13t-16.5 -66v-481h286zM994 147q88 86 88 214t-76.5 222t-200.5 94h-371v-537q0 -53 16.5 -66t69.5 -13h257q129 0 217 86z" />
    <glyph glyph-name="C" unicode="C" horiz-adv-x="1335" 
d="M1267 854q0 -26 -29 -26t-35 32q-12 60 -47 178q-51 127 -151 208.5t-217 81.5t-220 -50q-298 -145 -298 -613.5t322 -606.5q96 -41 185 -41q140 0 256 85t159 218q17 52 27 140q4 33 23 33q24 0 24 -35q0 -205 -154 -353t-360 -148q-288 0 -486 213t-198 502.5
t198.5 503.5t485.5 214q193 0 363 -169l99 144q17 25 31 25q22 0 22 -33v-503z" />
    <glyph glyph-name="D" unicode="D" horiz-adv-x="1459" 
d="M1226 1130q166 -200 166 -466t-172 -465t-432 -199h-720v61l62 -2q108 0 130 31q10 14 10 52v1060q0 36 -10 50q-21 29 -157 29h-35v62h720q263 0 438 -213zM1085 229q110 148 110 436.5t-103 433.5q-129 182 -359 182h-207q-53 0 -70 -13t-17 -66v-1062q0 -53 17.5 -66
t69.5 -13h209q225 0 350 168z" />
    <glyph glyph-name="E" unicode="E" horiz-adv-x="1354" 
d="M68 0v61q47 -1 53 -1q125 0 142 38q7 16 7 48v1053q0 30 -7 47q-15 36 -152 36q-20 0 -43 -1v62h1108l56 -442h-49q-24 218 -99.5 299t-288.5 81h-263q-54 0 -71 -13.5t-17 -65.5v-474h178q134 0 173.5 46.5t39.5 182.5h51v-521h-51q0 136 -40 183t-173 47h-178v-526
q0 -52 17 -65.5t71 -13.5h273q236 0 326 111q67 84 107 336h49l-84 -508h-1135z" />
    <glyph glyph-name="F" unicode="F" horiz-adv-x="1271" 
d="M779 1281h-252q-45 0 -64 -11.5t-19 -67.5v-501h170q132 0 171 48t39 183h48v-522h-48q0 136 -39 183.5t-171 47.5h-170v-497q0 -27 7 -44q16 -39 209 -39h37v-61q-74 6 -135 6h-373q-49 0 -121 -6v61h75q64 0 88 10q39 18 39 73v1056q0 25 -6 42q-14 39 -166 39h-30v62
h1081l54 -442h-49q-24 217 -89 291q-77 89 -286 89z" />
    <glyph glyph-name="G" unicode="G" horiz-adv-x="1472" 
d="M1405 478q-80 0 -97 -6q-40 -15 -40 -81v-360q0 -29 -16 -29q-42 0 -127 122q-97 -167 -378 -167t-480 212t-199 502.5t198.5 504.5t485.5 214q198 0 365 -169l99 144q17 25 31 25q21 0 21 -33l1 -503q0 -26 -29 -26t-35 32q-12 60 -46 177q-51 128 -151.5 209.5
t-217.5 81.5t-211 -46q-309 -152 -309 -608.5t312 -609.5q96 -47 213 -47t201 56q98 65 98 183v126q0 40 -9 56q-23 40 -175 40h-63v59q65 -5 221.5 -5t336.5 5v-59z" />
    <glyph glyph-name="H" unicode="H" horiz-adv-x="1480" 
d="M1413 1284l-56 2q-122 0 -140 -36q-8 -16 -8 -45v-1064q0 -29 8 -45q18 -35 186 -35h10v-61q-71 6 -113 6h-361q-36 0 -107 -6v61q9 0 28 -0.5t29 -0.5q119 0 137 36q8 16 8 45v530h-590v-530q0 -29 8 -45q18 -35 187 -35h10v-61q-71 6 -115 6h-358q-37 0 -108 -6v61
q9 0 27.5 -0.5t28.5 -0.5q121 0 139 36q7 14 7 45v1064q0 31 -7 45q-17 34 -149 34h-46v62q70 -6 112 -6h354q45 0 115 6v-62l-55 2q-123 0 -142 -36q-8 -16 -8 -45v-474h590v474q0 29 -8 45q-17 34 -148 34h-46v62q70 -6 112 -6h356q43 0 113 6v-62z" />
    <glyph glyph-name="I" unicode="I" horiz-adv-x="736" 
d="M670 1284l-59 2q-75 0 -103 -9q-53 -18 -53 -76v-1057q0 -27 13.5 -52t91.5 -31h110v-61q-71 6 -117 6h-373q-41 0 -112 -6v61q8 0 27.5 -0.5t29.5 -0.5q128 0 147 36q9 17 9 49v1056q0 32 -9 49q-18 34 -153 34h-51v62q71 -6 115 -6h376q41 0 111 6v-62z" />
    <glyph glyph-name="J" unicode="J" horiz-adv-x="970" 
d="M752 284q0 -141 -112.5 -234t-245 -93t-229.5 73t-97 190q0 49 30.5 81.5t78.5 32.5t79 -31.5t31 -78.5q0 -110 -121 -110h-4q71 -114 217 -114q99 0 156 101q47 83 47 190v910q0 29 -9 47q-19 36 -223 36h-32v62q78 -6 161 -6h221q73 0 203 6v-62l-42 2q-60 0 -85 -14
t-25 -69z" />
    <glyph glyph-name="K" unicode="K" horiz-adv-x="1519" 
d="M649 1284l-57 2q-126 0 -142 -40q-6 -15 -6 -44v-636l618 588q36 34 36 67q0 61 -91 63v62q69 -6 217.5 -6t201.5 6v-62q-160 -2 -281 -118l-356 -340l456 -670q42 -62 83.5 -78.5t122.5 -16.5v-61q-127 6 -281.5 6t-225.5 -6v61h4q113 0 113 59q0 22 -31 68l-357 528
l-229 -218v-359q0 -28 9 -45q17 -33 186 -33h10v-61q-71 6 -120 6h-347q-43 0 -114 -6v61q8 0 26.5 -0.5t28.5 -0.5q125 0 141 40q6 15 6 44v1066q0 27 -7 41q-16 33 -176 33h-19v62q70 -6 119 -6h342q50 0 120 6v-62z" />
    <glyph glyph-name="L" unicode="L" horiz-adv-x="1216" 
d="M697 1284l-66 2q-156 0 -177 -36q-10 -17 -10 -48v-1062q0 -52 17.5 -65.5t68.5 -13.5h173q212 0 303 123q70 96 94 324h49l-55 -508h-1026v61q8 0 25.5 -0.5t27.5 -0.5q124 0 142 35q7 14 7 46v1064q0 32 -7 46q-17 33 -185 33h-10v62q71 -6 126 -6h383q47 0 120 6v-62z
" />
    <glyph glyph-name="M" unicode="M" horiz-adv-x="1793" 
d="M1726 1281l-56 2q-125 0 -141 -41q-6 -15 -6 -45v-1058q0 -26 8 -43q17 -35 185 -35h10v-61q-75 6 -119 6h-334q-38 0 -113 -6v61h76q63 0 87 10q40 17 40 70v1140h-2l-483 -1245q-14 -36 -36 -36t-39 43l-476 1222h-2v-1064q0 -140 200 -140h3v-61q-209 6 -229 6
t-231 -6v61h3q199 0 199 140v1003q0 22 -6 38q-12 32 -89 39q-6 1 -32.5 1t-74.5 -1v62h341q45 0 61 -42l428 -1102l430 1108q14 36 49 36h349v-62z" />
    <glyph glyph-name="N" unicode="N" horiz-adv-x="1480" 
d="M1209 1139v-1107q0 -32 -26 -32q-16 0 -34 26l-805 1178q-12 17 -19 25v-1028q0 -140 200 -140h3v-61q-208 6 -230 6t-230 -6v61h3q199 0 199 140v1032q0 29 -8 35q-19 13 -194 13v62h342q30 0 48 -26l696 -1019v847q0 139 -203 139v62q205 -6 231.5 -6t230.5 6v-62h-3
q-201 0 -201 -145z" />
    <glyph glyph-name="O" unicode="O" horiz-adv-x="1445" 
d="M722 -43q-280 0 -467 214t-187 498.5t186.5 502.5t468 218t468 -217.5t186.5 -503t-187.5 -499t-467.5 -213.5zM1175 696q0 438 -260 590q-92 54 -192 54t-191 -53q-262 -153 -262 -591q0 -469 265 -632q91 -56 185 -56t188 55q267 156 267 633z" />
    <glyph glyph-name="P" unicode="P" horiz-adv-x="1295" 
d="M1074 1249q154 -106 154 -268t-142 -262t-307 -100h-335v-473q0 -32 7 -48q17 -37 181 -37h17v-61q-72 6 -133 6h-326q-50 0 -122 -6v61l55 -1q122 0 140 38q7 15 7 48v1051q0 32 -7 48q-16 37 -158 37q-18 0 -37 -1v62h695q174 0 311 -94zM1024 977q0 161 -75.5 232.5
t-237.5 71.5h-186q-53 0 -69.5 -13t-16.5 -66v-532h272q313 0 313 307z" />
    <glyph glyph-name="Q" unicode="Q" horiz-adv-x="1457" 
d="M1390 -19q0 -135 -52 -236q-65 -127 -189 -127t-183 130q-34 73 -56 239q-95 -30 -186 -30q-281 0 -468.5 214t-187.5 498.5t186.5 502.5t468 218t468 -217.5t186.5 -503.5q0 -209 -107 -390.5t-292 -265.5q62 -192 188 -192q138 0 180 166q9 35 21 35q23 0 23 -41z
M1180 669q0 455 -262 613q-96 58 -194.5 58t-193.5 -56q-267 -157 -267 -615q0 -213 69 -375q86 -199 259 -263q-28 45 -28 103.5t47.5 107.5t115.5 49q144 0 221 -208q233 172 233 586zM726 248q-50 0 -84.5 -36.5t-34.5 -87t33 -84.5t84 -34q92 0 174 46q-36 196 -172 196
z" />
    <glyph glyph-name="R" unicode="R" horiz-adv-x="1508" 
d="M1440 173q0 -86 -51 -151t-135 -65q-330 0 -330 318q0 13 1 40v40q0 158 -73 227.5t-186 69.5h-227v-511q0 -29 7 -46q14 -34 171 -34h26v-61q-74 6 -143 6h-289q-69 0 -143 -6v61q6 0 24.5 -0.5t28.5 -0.5q125 0 142 35q7 15 7 46v1055q0 27 -6 45q-14 40 -167 40h-29
v62h618q183 0 333 -84q180 -100 180 -267q0 -122 -115 -213q-94 -75 -229 -108q165 -57 224 -182q25 -52 39 -149l25 -182q31 -158 118 -158q101 0 131 175q5 31 24 31q24 0 24 -33zM997 992q0 196 -143 256q-84 35 -314 35q-51 0 -69 -7q-32 -14 -32 -57v-523h219
q339 0 339 296z" />
    <glyph glyph-name="S" unicode="S" horiz-adv-x="1007" 
d="M860.5 616.5q79.5 -107.5 79.5 -262.5t-110.5 -276t-277.5 -121q-236 0 -362 137l-72 -111q-16 -26 -30 -26q-20 0 -20 29v431q0 29 24 29q30 0 30 -72q0 -143 117 -250t311 -107q114 0 189 84t75 192.5t-59 184.5t-170 104q-88 17 -260 65q-116 42 -186.5 140t-70.5 221
q0 160 111 271t278 111t309 -139l69 112q17 27 29 27q24 0 24 -33v-429q0 -28 -28 -28q-18 0 -23 22q-7 41 -25 122q-81 290 -360 290q-109 0 -183.5 -74.5t-74.5 -183.5q0 -189 199 -250q85 -19 252 -62q136 -40 215.5 -147.5z" />
    <glyph glyph-name="T" unicode="T" horiz-adv-x="1413" 
d="M878 1282q-46 0 -65.5 -11.5t-19.5 -53.5v-1071q0 -25 10 -47q18 -38 243 -38h34v-61q-84 6 -154 6h-439q-71 0 -155 -6v61q9 0 35.5 -0.5t40.5 -0.5q184 0 202 39q8 17 8 47v1072q0 43 -29 56q-17 8 -66 8q-256 0 -321 -62.5t-86 -318.5h-48l36 442h1206l36 -442h-49
q-22 262 -88.5 321.5t-330.5 59.5z" />
    <glyph glyph-name="U" unicode="U" horiz-adv-x="1480" 
d="M1209 1131v-668q0 -203 -122.5 -354.5t-323.5 -151.5t-347 143.5t-146 347.5v760q0 30 -7 43q-18 34 -156 34q-19 0 -39 -1v62q73 -6 156 -6h269q84 0 156 6v-62q-48 1 -60 1q-118 0 -136 -34q-9 -17 -9 -51v-759q0 -298 192 -393q62 -31 134 -31q170 0 274.5 131
t104.5 306v685q0 89 -63 122q-45 23 -140 23v62q205 -6 234 -6t233 6v-62h-4q-164 0 -192 -85q-8 -24 -8 -68z" />
    <glyph glyph-name="V" unicode="V" horiz-adv-x="1536" 
d="M814 -6q-14 -37 -46.5 -37t-48.5 43l-457 1209q-22 57 -81 71q-19 5 -67 5q-20 0 -46 -1v62q214 -6 336.5 -6t195.5 6v-62h-6q-156 0 -156 -56q0 -30 141 -394l247 -637l361 950q9 24 9 40q0 94 -143 97v62q154 -6 238 -6t177 6v-62q-164 -1 -214 -132z" />
    <glyph glyph-name="W" unicode="W" horiz-adv-x="2087" 
d="M2019 1284q-152 0 -195 -132l-378 -1156q-13 -39 -38.5 -39t-37.5 37l-328 1003l-323 -1001q-13 -39 -39.5 -39t-38.5 37l-395 1207q-6 19 -23 53q-23 30 -134 30h-21v62q242 -6 344.5 -6t175.5 6v-62h-5q-161 0 -161 -58q0 -15 4 -27l316 -968l275 845l-35 127
q-16 48 -52 64.5t-134 16.5v62q242 -6 344.5 -6t175.5 6v-62h-5q-160 0 -160 -58q0 -15 5 -30l316 -965l296 910q10 31 10 39q0 53 -63 81q-48 22 -109 23v62q155 -6 239 -6t174 6v-62z" />
    <glyph glyph-name="X" unicode="X" horiz-adv-x="1518" 
d="M1450 0q-127 6 -299 6t-244 -6v61q128 5 128 59q0 10 -320 493l-281 -414q-19 -28 -19 -48q0 -43 38.5 -66t84.5 -24v-61q-74 6 -165 6t-305 -6v61q196 0 285 131l323 477l-362 547q-34 51 -99 64q-24 4 -81 4h-41v62q112 -6 292.5 -6t251.5 6v-62q-128 -5 -128 -58
q0 -13 268 -410l225 333q17 25 17 46q0 43 -37.5 65.5t-83.5 23.5v62q81 -6 163.5 -6t306.5 6v-62q-198 -2 -285 -128l-271 -395l416 -629q35 -53 99 -66q25 -5 85 -5h38v-61z" />
    <glyph glyph-name="Y" unicode="Y" horiz-adv-x="1566" 
d="M1499 1284q-173 0 -252 -128l-381 -619v-388q0 -34 10 -53q15 -29 90 -35h104v-61q-73 6 -127 6h-320q-55 0 -128 -6v61q8 0 25.5 -0.5t27.5 -0.5q124 0 142 36q7 14 7 43v398l-413 675q-34 56 -95 68q-21 4 -121 4v62q126 -6 299.5 -6t246.5 6v-62h-24q-112 0 -112 -48
q0 -14 13 -35l356 -581l325 529q21 34 21 58q0 77 -113 77v62q155 -6 240.5 -6t178.5 6v-62z" />
    <glyph glyph-name="Z" unicode="Z" horiz-adv-x="1128" 
d="M101 0q-33 0 -33 33q0 21 13 41l766 1207h-310q-206 0 -294 -87.5t-100 -293.5h-51l22 443h900q34 0 34 -32q0 -16 -14 -38l-764 -1205h324q239 0 329 114q76 95 89 344h49l-35 -526h-925z" />
    <glyph glyph-name="bracketleft" unicode="[" horiz-adv-x="682" 
d="M571 -309q0 -41 -68 -41h-391v1864h391q68 0 68 -40.5t-68 -40.5h-309v-1701h309q68 0 68 -41z" />
    <glyph glyph-name="backslash" unicode="\" horiz-adv-x="569" 
d="M569 -311q0 -41 -39 -41q-33 0 -40 26l-488 1788q-2 7 -2 13q0 41 39 41q33 0 40 -26l488 -1788q2 -7 2 -13z" />
    <glyph glyph-name="bracketright" unicode="]" horiz-adv-x="682" 
d="M570 -350h-391q-68 0 -68 41t68 41h309v1701h-309q-68 0 -68 40.5t68 40.5h391v-1864z" />
    <glyph glyph-name="asciicircum" unicode="^" horiz-adv-x="906" 
d="M765 1057q31 -15 31 -41t-21 -26q-5 0 -7 2q-199 57 -315 265q-103 -186 -314 -265q-3 -2 -8 -2q-21 0 -21 36q0 16 28 29l53 23q129 64 208 204q11 23 36 67q6 11 18.5 11t19.5 -11l34 -68q77 -138 208 -203z" />
    <glyph glyph-name="underscore" unicode="_" horiz-adv-x="964" 
d="M971 -337q59 0 59 -38.5t-59 -38.5h-979q-58 0 -58 38.5t59 38.5h978z" />
    <glyph glyph-name="grave" unicode="`" horiz-adv-x="536" 
d="M255 1301q17 -44 95 -274.5t78 -243t-15.5 -12.5t-26.5 17l-271 472q-7 12 -7 23q0 56 81 56q50 0 66 -38z" />
    <glyph glyph-name="a" unicode="a" horiz-adv-x="1070" 
d="M1018 190q0 -83 -47.5 -142.5t-122.5 -59.5t-120.5 51.5t-52.5 122.5q-35 -85 -111 -135.5t-186.5 -50.5t-205.5 50q-119 62 -119 178q0 179 213 279q131 61 394 76v78q0 110 -60.5 192t-166.5 82q-154 0 -231 -98q46 0 78 -26.5t32 -70t-28.5 -71.5t-71.5 -28
q-98 0 -98 99q0 113 102 178.5t222 65.5q183 0 293 -119q50 -54 63.5 -108t13.5 -144v-427q0 -40 20.5 -74t57.5 -34q79 0 79 175q0 28 -2 80h55v-119zM660 300v214q-171 -6 -291 -71q-152 -82 -152 -236q0 -78 56.5 -130.5t135.5 -52.5q111 0 181 81.5t70 194.5z" />
    <glyph glyph-name="b" unicode="b" horiz-adv-x="1160" 
d="M360 807q121 139 303.5 139t313 -145.5t130.5 -342t-139 -339.5t-327.5 -143t-290.5 157q-24 -46 -77 -133h-53v1277q0 88 -47 109q-20 10 -85 10q-16 0 -35 -1v67l307 23v-678zM865 162q64 99 64 300t-60 299q-85 138 -225 138q-91 0 -184 -64t-93 -150v-442
q0 -45 30 -89q89 -130 234 -130t234 138z" />
    <glyph glyph-name="c" unicode="c" horiz-adv-x="920" 
d="M868 254q0 -22 -27 -75q-104 -203 -329 -203q-194 0 -326.5 144.5t-132.5 343t132 347.5t330 149q121 0 215 -54q113 -64 113 -170t-97 -106q-42 0 -70.5 28t-28.5 70q0 94 100 99q-79 78 -229 78q-60 0 -120 -34q-168 -94 -168 -402.5t178 -404.5q63 -34 123 -34
q113 0 181 64q40 37 74 109.5t53 72.5q29 0 29 -22z" />
    <glyph glyph-name="d" unicode="d" horiz-adv-x="1159" 
d="M793 118q-111 -142 -295 -142t-314.5 144.5t-130.5 340.5t139.5 340.5t336.5 144.5q163 0 270 -133v464q0 88 -47 109q-20 10 -85 10q-16 0 -35 -1v67l308 23v-1300q0 -88 46 -110q20 -10 85 -10q16 0 35 1v-66l-313 -24v142zM793 253v449q0 32 -24 68q-87 129 -236 129
t-238 -138q-65 -100 -65 -300t61 -299q85 -138 224 -138q93 0 185.5 69.5t92.5 159.5z" />
    <glyph glyph-name="e" unicode="e" horiz-adv-x="933" 
d="M854 280q27 0 27 -28t-35 -88q-110 -188 -315 -188t-341.5 147.5t-136.5 344.5t127 344.5t312.5 147.5t287 -119t101.5 -302q0 -30 -7.5 -37.5t-38.5 -7.5h-605v-7q0 -210 64 -313q90 -144 242 -144q198 0 290 221q12 29 28 29zM740 539q0 143 -50 243q-64 129 -192 129
q-41 0 -90 -23q-165 -78 -175 -349h507z" />
    <glyph glyph-name="f" unicode="f" horiz-adv-x="798" 
d="M239 6l-185 -6v66q28 -1 69 -1t64 12q34 18 34 76v702h-168v68h168v246q0 141 95.5 240t236.5 99q72 0 132.5 -40.5t60.5 -108.5q0 -94 -95 -94q-39 0 -65.5 26t-26.5 65q0 69 64 91q-33 15 -70 15q-96 0 -151 -102q-46 -84 -46 -189v-248h251v-68h-246v-704q0 -21 7 -41
q15 -44 186 -44h15v-66q-81 6 -145 6h-185z" />
    <glyph glyph-name="g" unicode="g" horiz-adv-x="1082" 
d="M403 136l112 3q242 0 345 -59q142 -81 142 -244q0 -140 -177 -217q-136 -59 -297 -59t-298 59q-177 76 -177 212q0 77 58.5 133.5t138.5 79.5q-94 62 -94 192q0 98 66 176q-101 85 -101 220t105.5 224.5t238 89.5t230.5 -77q103 101 227 101q45 0 76.5 -30t31.5 -75
q0 -64 -62 -64t-62 61q0 44 34 59q-9 2 -20 2q-104 0 -193 -84q87 -81 87 -211t-105 -220t-232 -90t-221 67q-36 -43 -36 -100q0 -149 183 -149zM655 633q0 264 -187 264q-102 0 -153 -87q-34 -58 -34 -178q0 -264 187 -264q101 0 152 86q35 59 35 179zM888 -169
q0 183 -357 183h-191q-72 0 -124.5 -55.5t-52.5 -127.5q0 -109 134 -172q108 -51 230.5 -51t228.5 51q132 64 132 172z" />
    <glyph glyph-name="h" unicode="h" horiz-adv-x="1181" 
d="M1129 0q-200 6 -238 6t-244 -6v66q30 -1 70.5 -1t63.5 12q33 19 33 76v519q0 227 -158 227q-130 0 -209.5 -104.5t-79.5 -238.5v-400q0 -39 10 -58q18 -33 117 -33q18 0 38 1v-66q-200 6 -236.5 6t-242.5 -6v66q30 -1 72.5 -1t68 16.5t25.5 80.5v1115q0 87 -44 108
q-21 10 -96 10h-26v67l306 23v-744h2q41 93 125 149t184 56q292 0 292 -314v-502q0 -65 135 -65q15 0 32 1v-66z" />
    <glyph glyph-name="i" unicode="i" horiz-adv-x="562" 
d="M510 0q-202 6 -233 6t-224 -6v66l44 -1q66 0 89 13q33 18 33 79v582q0 85 -41 105q-21 11 -103 11h-14v68l298 23v-802q0 -59 51 -73q19 -5 69 -5h31v-66zM335.5 1356q33.5 -33 33.5 -80.5t-33.5 -81t-80.5 -33.5t-80 34.5t-33 80t33.5 79.5t80 34t80 -33z" />
    <glyph glyph-name="j" unicode="j" horiz-adv-x="588" 
d="M385 -107q0 -133 -81 -232.5t-211 -99.5q-90 0 -159 40q-83 48 -83 132q0 42 27.5 70t69.5 28t70.5 -28t28.5 -70q0 -76 -74 -96q58 -29 114 -29q158 0 158 281v861q0 39 -9 60q-20 45 -148 45h-27v68l324 23v-1053zM353 1356q33 -33 33 -80.5t-33.5 -81t-80 -33.5
t-79.5 34.5t-33 80t33.5 79.5t80 34t79.5 -33z" />
    <glyph glyph-name="k" unicode="k" horiz-adv-x="1139" 
d="M1086 0q-88 6 -168 6t-248 -6v66h6q70 0 70 49q0 38 -255 385l-136 -116v-222q0 -51 12 -69.5t47 -22.5q30 -4 83 -4h25v-66q-121 6 -197 6t-272 -6v66q10 0 33 -0.5t35 -0.5q99 0 99 97v1115q0 87 -45 108q-21 10 -106 10h-16v67l307 23v-1027l302 261q47 41 47 84
q0 50 -61 52v68q116 -8 214 -8t175 8v-68q-133 -6 -270 -114q-174 -137 -174 -156q0 -2 14 -22l273 -383q48 -67 88 -91q39 -23 112 -23h6v-66z" />
    <glyph glyph-name="l" unicode="l" horiz-adv-x="579" 
d="M53 66l68 -2q98 0 98 98v1115q0 87 -44 108q-21 10 -106 10h-16v67l306 23v-1323q0 -50 13.5 -69t49.5 -23q29 -4 81 -4h24v-66q-220 6 -247.5 6t-226.5 -6v66z" />
    <glyph glyph-name="m" unicode="m" horiz-adv-x="1775" 
d="M1485 6q-40 0 -244 -6v66q26 -1 70 -1t65 13q32 19 32 84v499q0 238 -157 238q-130 0 -209.5 -104.5t-79.5 -238.5v-401q0 -39 12 -60q18 -30 118 -30q17 0 37 1v-66q-198 6 -237.5 6t-244.5 -6v66q26 -1 70 -1t65 13q32 19 32 84v499q0 238 -158 238
q-130 0 -209.5 -104.5t-79.5 -238.5v-397q0 -47 11 -64q18 -30 114 -30q19 0 40 1v-66q-198 6 -236 6t-243 -6v66q26 -1 69.5 -1t70 16t26.5 81v574q0 87 -44 109q-21 10 -96 10h-26v68l301 23v-225q101 225 316 225q251 0 284 -210q43 95 126.5 152.5t185.5 57.5
q158 0 224.5 -81t66.5 -243v-42q-1 -27 -1 -41v-409q0 -65 132 -65q17 0 35 1v-66q-198 6 -238 6z" />
    <glyph glyph-name="n" unicode="n" horiz-adv-x="1181" 
d="M1129 0q-200 6 -238 6t-244 -6v66q29 -1 70 -1t64 12q33 19 33 76v519q0 227 -158 227q-130 0 -209.5 -104.5t-79.5 -238.5v-400q0 -38 10 -58q17 -33 117 -33q17 0 38 1v-66q-199 6 -236 6t-243 -6v66q29 -1 72 -1t68.5 16.5t25.5 80.5v574q0 87 -44 109q-21 10 -96 10
h-26v68l301 23v-225q101 225 316 225q292 0 292 -316v-500q0 -65 135 -65q15 0 32 1v-66z" />
    <glyph glyph-name="o" unicode="o" horiz-adv-x="1054" 
d="M191.5 118.5q-138.5 142.5 -138.5 341.5t138 349.5t336.5 150.5t336.5 -151t138 -350.5t-139 -341t-336 -141.5t-335.5 142.5zM776 188q47 92 47 292.5t-56 292.5q-84 138 -244.5 138t-241.5 -143q-51 -90 -51 -294.5t55 -299.5q83 -144 246.5 -144t244.5 158z" />
    <glyph glyph-name="p" unicode="p" horiz-adv-x="1160" 
d="M360 805q127 141 308 141t310 -146.5t129 -342t-139 -338.5t-337 -143q-78 0 -158.5 42t-105.5 109v-388q0 -42 11 -59q19 -29 114 -29q19 0 41 1v-66q-169 5 -241.5 5t-238.5 -5v66q37 -2 76.5 -2t60.5 14q30 19 30 83v1002q0 51 -10 71.5t-44 28.5q-26 6 -83 6h-30v68
l307 23v-141zM855 176q74 128 74 282t-67 281q-81 154 -218 154q-179 0 -277 -172v-478q0 -46 30 -89q91 -130 230.5 -130t227.5 152z" />
    <glyph glyph-name="q" unicode="q" horiz-adv-x="1159" 
d="M1106 -414q-166 5 -243 5t-239 -5v66q37 -2 77 -2t66 16.5t26 80.5v383q-115 -154 -284 -154q-192 0 -324 144.5t-132 340t138 340.5t334 145q92 0 169.5 -54t117.5 -140l81 194h47v-1199q0 -46 12 -67q17 -29 113 -29q19 0 41 1v-66zM799 291v301q0 112 -76 206.5
t-178.5 94.5t-176.5 -72q-138 -134 -138 -362q0 -152 66 -280q81 -155 219 -155q104 0 194 82t90 185z" />
    <glyph glyph-name="r" unicode="r" horiz-adv-x="823" 
d="M53 66l67 -2q100 0 100 98v574q0 87 -45 109q-22 10 -106 10h-16v68l297 23v-235q76 235 262 235q60 0 109.5 -36.5t49.5 -85.5t-25.5 -76t-65 -27t-66 26t-26.5 66q0 64 48 84q-6 2 -14 2q-136 0 -207 -140q-55 -111 -55 -262v-346q0 -62 56 -78q23 -7 108 -7h44v-66
q-81 6 -147 6h-174l-194 -6v66z" />
    <glyph glyph-name="s" unicode="s" horiz-adv-x="804" 
d="M752 274q0 -146 -97 -222t-242 -76t-242 93q-77 -93 -97.5 -93t-20.5 33v322q0 32 27 32q21 0 30 -35q37 -146 92 -214q73 -90 206 -90q103 0 172 48.5t69 146.5q0 147 -223 195q-128 28 -148 33q-82 25 -134 67q-91 75 -91 183q0 134 108 204q92 59 221.5 59t212.5 -61
q60 61 82 61t22 -33v-254q0 -35 -29 -35q-23 0 -31 43l-6 60q-16 87 -81.5 132.5t-158.5 45.5t-157 -34q-81 -43 -81 -129t94 -130q48 -22 169 -46q170 -33 243 -102q91 -86 91 -204z" />
    <glyph glyph-name="t" unicode="t" horiz-adv-x="775" 
d="M722 265q0 -113 -48 -193q-58 -96 -164 -96q-132 0 -203.5 78t-71.5 211v590h-182v49q142 5 215 145q59 111 61 268h53v-394h305v-68h-305v-594q0 -231 144.5 -231t144.5 290q0 18 -1 67h52v-122z" />
    <glyph glyph-name="u" unicode="u" horiz-adv-x="1181" 
d="M821 169q-89 -193 -278.5 -193t-256.5 83t-67 280v375q0 102 -35 126q-23 15 -119 15h-12v68l314 23v-710q0 -114 39 -163t156 -49t189 108q63 94 63 224v380q0 87 -45 109q-21 10 -96 10h-26v68l315 23v-761q0 -87 45 -109q21 -10 96 -10h26v-66l-308 -24v193z" />
    <glyph glyph-name="v" unicode="v" horiz-adv-x="1151" 
d="M577 -24q-29 0 -45 40l-309 760q-24 60 -68 73q-18 6 -83 6h-19v68q120 -8 164 -8t276 8v-68q-122 0 -122 -54q0 -15 252 -634l219 546q13 32 13 50q0 90 -102 92v68q135 -8 194.5 -8t151.5 8v-68q-142 -1 -198 -142l-279 -697q-16 -40 -45 -40z" />
    <glyph glyph-name="w" unicode="w" horiz-adv-x="1571" 
d="M1045 -24q-28 0 -42 40l-220 608l-216 -606q-15 -42 -42.5 -42t-44.5 48l-270 757q-19 54 -62 68q-20 6 -78 6h-17v68q143 -8 170.5 -8t260.5 8v-68h-4q-121 0 -121 -56q0 -38 77 -245l137 -366l183 518q-38 105 -54 121q-29 28 -129 28v68q120 -8 189 -8l224 8v-68h-4
q-124 0 -124 -56q0 -11 11 -42l213 -595l195 546q10 28 10 46q0 98 -125 101v68q151 -8 209.5 -8t146.5 8v-68q-131 -3 -179 -136l-252 -703q-14 -40 -42 -40z" />
    <glyph glyph-name="x" unicode="x" horiz-adv-x="1183" 
d="M1131 0q-91 6 -175.5 6t-261.5 -6v66q77 3 77 54q0 10 -208 285q-192 -223 -192 -272q0 -61 62 -67v-66q-141 6 -221 6t-159 -6v66q159 0 274 128l200 256l-212 276q-71 92 -105 110.5t-147 18.5v68q110 -8 171 -8t264 8v-68q-75 -2 -75 -52q0 -20 184 -255l134 167
q33 41 33 75q0 61 -63 65v68q108 -8 192.5 -8t188.5 8v-68q-152 -3 -255 -109q-26 -27 -197 -244l287 -369q37 -47 92 -60q28 -7 95 -7h17v-66z" />
    <glyph glyph-name="y" unicode="y" horiz-adv-x="1151" 
d="M249 -439q-76 0 -136 50t-60 124q0 91 89 91q39 0 65 -25.5t26 -63.5q0 -81 -85 -91q41 -38 101 -38q93 0 158 92q32 45 68 130l71 170l-321 781q-22 54 -70 68q-21 6 -74 6h-28v68q120 -8 178.5 -8t261.5 8v-68h-4q-116 0 -116 -54q0 -19 250 -616l217 528q14 34 14 50
q0 90 -101 92v68q170 -8 212 -8t134 8v-68h-2q-140 0 -197 -136l-377 -913q-101 -245 -274 -245z" />
    <glyph glyph-name="z" unicode="z" horiz-adv-x="904" 
d="M91 0q-38 0 -38 30q0 15 18 39l599 807h-245q-167 0 -223.5 -63.5t-65.5 -234.5h-53l24 345h701q38 0 38 -28q0 -14 -18 -38l-595 -803h251q182 0 248 86q51 68 65 260h55l-38 -400h-723z" />
    <glyph glyph-name="braceleft" unicode="{" horiz-adv-x="983" 
d="M827 -327q0 -23 -41 -23q-174 0 -285 78q-73 51 -93 116q-13 42 -13 149v313q0 117 -72 181t-190 73q-33 2 -33 21t18 22t35 4q242 31 242 252v313q0 107 13 149q20 65 93 116q109 77 285 77q41 0 41 -20.5t-18 -24.5q-154 -9 -237 -94q-42 -43 -54 -114q-5 -34 -5 -129
v-277q0 -89 -21 -132q-47 -96 -202 -141q155 -45 202 -141q21 -42 21 -131v-277q0 -95 5 -129q12 -71 54 -114q83 -85 237 -94q18 -4 18 -23z" />
    <glyph glyph-name="bar" unicode="|" horiz-adv-x="410" 
d="M246 -311q0 -41 -41 -41t-41 41v1788q0 39 41 39t41 -39v-1788z" />
    <glyph glyph-name="braceright" unicode="}" horiz-adv-x="983" 
d="M883 582q0 -17 -18 -20t-35 -4q-242 -31 -242 -252v-313q0 -107 -13 -149q-20 -65 -93 -116q-111 -78 -285 -78q-41 0 -41 23q0 19 18 23q154 9 237 94q42 43 54 114q5 34 5 129v277q0 89 21 131q47 96 202 141q-155 45 -202 141q-21 43 -21 132v277q0 95 -5 129
q-12 71 -54 114q-83 85 -237 94q-18 4 -18 24.5t41 20.5q176 0 285 -77q73 -51 93 -116q13 -42 13 -149v-313q0 -117 72 -181t190 -73q33 -2 33 -23z" />
    <glyph glyph-name="asciitilde" unicode="~" horiz-adv-x="1058" 
d="M1021 659q0 -111 -71.5 -195t-175.5 -84t-251.5 116.5t-233.5 116.5q-136 0 -179 -131q-6 -29 -15.5 -65t-27.5 -36q-30 0 -30 57q0 109 72.5 193.5t176 84.5t251 -117t233.5 -117q155 0 192 184q9 49 31 49q28 0 28 -56z" />
    <glyph glyph-name="uni00A0" unicode="&#xa0;" horiz-adv-x="512" 
 />
    <glyph glyph-name="dieresis" unicode="&#xa8;" horiz-adv-x="549" 
d="M167 1318q32 -32 32 -78.5t-32 -79t-78 -32.5t-79 33.5t-33 78t33.5 77.5t79 33t77.5 -32zM539 1318q32 -32 32 -78.5t-32 -79t-78 -32.5t-79 33.5t-33 78t33.5 77.5t79 33t77.5 -32z" />
    <glyph glyph-name="guillemotleft" unicode="&#xab;" horiz-adv-x="1140" 
d="M528 5q0 -27 -48 -27q-20 0 -36 37l-30 68q-79 165 -266 268q-29 14 -86 45q-15 10 -15 25t15 25l87 46q186 100 265 266l26 65q20 41 54 41t34 -27q0 -3 -3 -10q-123 -284 -344 -406q223 -124 344 -406q3 -7 3 -10zM952 5q0 -27 -47 -27q-20 0 -37 37t-30 68
q-79 165 -266 268q-30 14 -86 45q-15 10 -15 25t15 25l87 46q186 100 265 266l26 65q20 41 54 41t34 -27q0 -3 -3 -10q-123 -284 -344 -406q223 -124 344 -406q3 -7 3 -10z" />
    <glyph glyph-name="logicalnot" unicode="&#xac;" horiz-adv-x="1591" 
d="M1304 219q0 -37 -41 -37t-41 37v428h-1013q-39 0 -39 41t39 41h1058q37 0 37 -37v-473z" />
    <glyph glyph-name="uni00AD" unicode="&#xad;" horiz-adv-x="0" 
 />
    <glyph glyph-name="degree" unicode="&#xb0;" horiz-adv-x="771" 
d="M590.5 1325.5q84.5 -84.5 84.5 -205t-84.5 -204.5t-205 -84t-205 84.5t-84.5 204.5t84.5 204.5t205 84.5t205 -84.5zM534 972.5q61 61.5 61 149t-61 148.5t-148.5 61t-149 -61.5t-61.5 -148.5t62 -148.5t149 -61.5t148 61.5z" />
    <glyph glyph-name="plusminus" unicode="&#xb1;" horiz-adv-x="1591" 
d="M1421 41q0 -41 -37 -41h-1175q-39 0 -39 41t39 41h546v502h-546q-39 0 -39 41t39 41h546v546q0 39 41 39t41 -39v-546h547q37 0 37 -41t-37 -41h-547v-502h547q37 0 37 -41z" />
    <glyph glyph-name="acute" unicode="&#xb4;" horiz-adv-x="928" 
d="M523 1401q22 29 53 29t54 -23t23 -53t-28 -54l-313 -256l-37 35z" />
    <glyph glyph-name="periodcentered" unicode="&#xb7;" horiz-adv-x="300" 
d="M260 582q0 -46 -32 -78t-78 -32t-78 32t-32 78t32 78t78 32t78 -32t32 -78z" />
    <glyph glyph-name="uni00B9" unicode="&#xb9;" horiz-adv-x="801" 
d="M142 642l84 -2q93 0 106 24q5 9 5 30v708q-80 -31 -204 -31v62q193 0 290 89h12q38 0 38 -45v-786q0 -18 5 -28q11 -21 175 -21h15v-64q-67 5 -105 5h-316q-38 0 -105 -5v64z" />
    <glyph glyph-name="ordmasculine" unicode="&#xba;" horiz-adv-x="810" 
d="M771 894.5q0 -143.5 -111 -237.5t-255.5 -94t-254.5 94.5t-110 238t110 242.5t255.5 99t255.5 -99.5t110 -243zM583 719q34 60 34 189t-41 189q-60 88 -174.5 88t-172.5 -91q-37 -58 -37 -190t40 -194q59 -91 176.5 -91t174.5 100z" />
    <glyph glyph-name="guillemotright" unicode="&#xbb;" horiz-adv-x="1140" 
d="M670 421q0 -15 -15 -25l-87 -45q-188 -104 -266 -268l-26 -64q-20 -41 -46 -41q-41 0 -41 27q0 5 2 10q116 279 345 406q-227 125 -345 406q-2 4 -2 10q0 27 34 27t50 -36.5t29 -69.5q78 -165 265 -266q31 -14 88 -46q15 -10 15 -25zM1093 421q0 -15 -14 -25l-87 -45
q-188 -104 -266 -268l-26 -64q-20 -41 -46 -41q-41 0 -41 27q0 5 1 10q117 279 346 406q-227 125 -346 406q-1 4 -1 10q0 27 33.5 27t53.5 -41l26 -65q78 -165 265 -266q30 -14 88 -46q14 -10 14 -25z" />
    <glyph glyph-name="multiply" unicode="&#xd7;" horiz-adv-x="1591" 
d="M1321 100q0 -44 -43 -44q-15 0 -25 10l-458 458l-456 -456q-11 -11 -27 -11q-42 0 -42 42q0 16 11 27l457 456l-457 456q-11 11 -11 27q0 42 42 42q16 0 27 -11l456 -456l458 458q10 10 25 10q43 0 43 -44q0 -14 -10 -24l-458 -458l458 -458q10 -10 10 -24z" />
    <glyph glyph-name="divide" unicode="&#xf7;" horiz-adv-x="1591" 
d="M1421 582q0 -41 -37 -41h-1175q-39 0 -39 41t39 41h1175q37 0 37 -41zM875 1109.5q34 -33.5 34 -80t-33.5 -79.5t-80.5 -33t-80.5 33t-33.5 79.5t34 80t80 33.5t80 -33.5zM875.5 214q33.5 -33 33.5 -79.5t-34 -80t-80 -33.5t-80 33.5t-34 80t33.5 79.5t80.5 33t80.5 -33z
" />
    <glyph glyph-name="dotlessi" unicode="&#x131;" horiz-adv-x="562" 
d="M510 0q-202 6 -233 6t-224 -6v66l44 -1q66 0 89 13q33 18 33 79v582q0 85 -41 105q-21 11 -103 11h-14v68l298 23v-802q0 -59 51 -73q19 -5 69 -5h31v-66z" />
    <glyph glyph-name="florin" unicode="&#x192;" horiz-adv-x="1033" 
d="M977 1183q-39 0 -65 25q-23 23 -23 56v8q3 37 29 64.5t62 32.5q-41 31 -94 31q-19 0 -34 -4q-35 -11 -68 -63q-9 -16 -65 -311l-26 -138h208q26 0 22 -27l-7 -16q-4 -25 -29 -25h-208l-93 -503q-81 -436 -171 -585.5t-203 -149.5q-71 0 -125.5 39t-54.5 98t30 93.5
t79 34.5q75 0 75 -71q0 -44 -29.5 -76t-72.5 -34q37 -37 107 -37q67 0 109 121q26 75 117 559l95 511h-173q-26 0 -20 26l5 17q6 25 31 25h171l24 128q23 121 47.5 204t70.5 136q85 94 185 94q48 0 94 -20q102 -45 102 -132q0 -7 -1 -14q-8 -97 -101 -97z" />
    <glyph glyph-name="uni019B" unicode="&#x19b;" horiz-adv-x="1121" 
d="M1102 -7q0 -18 -45 -18q-81 0 -107 19.5t-54 92.5q-62 162 -194 554l-403 -483q-49 -68 -141 -167q-26 -18 -46 -18q-61 0 -61 57q0 29 43 72q575 581 587 594l-130 369h-267q-37 0 -37 42t37 42h237l-51 140q-23 65 -34 87q-26 57 -53 70q-22 6 -48 14.5t-26 23.5
q0 24 39 24q212 0 266 -155l70 -204h276q38 0 38 -42t-38 -42h-247l333 -963q20 -57 38 -81.5t18 -27.5z" />
    <glyph glyph-name="uni01C0" unicode="&#x1c0;" horiz-adv-x="626" 
d="M354 -101q0 -41 -41 -41t-41 41v1368q0 39 41 39t41 -39v-1368z" />
    <glyph glyph-name="uni01C1" unicode="&#x1c1;" horiz-adv-x="1024" 
d="M752 -105q0 -37 -41 -37t-41 37v1374q0 37 41 37t41 -37v-1374zM354 -105q0 -37 -41 -37t-41 37v1374q0 37 41 37t41 -37v-1374z" />
    <glyph glyph-name="uni01C2" unicode="&#x1c2;" horiz-adv-x="1194" 
d="M1024 380q0 -41 -37 -41h-349v-444q0 -37 -41 -37t-41 37v444h-347q-39 0 -39 41t39 41h347v322h-347q-39 0 -39 41t39 41h347v444q0 37 41 37t41 -37v-444h349q37 0 37 -41t-37 -41h-349v-322h349q37 0 37 -41z" />
    <glyph glyph-name="uni0237" unicode="&#x237;" horiz-adv-x="588" 
d="M385 -107q0 -133 -81 -232.5t-211 -99.5q-90 0 -159 40q-83 48 -83 132q0 42 27.5 70t69.5 28t70.5 -28t28.5 -70q0 -76 -74 -96q58 -29 114 -29q158 0 158 281v861q0 39 -9 60q-20 45 -148 45h-27v68l324 23v-1053z" />
    <glyph glyph-name="uni025B" unicode="&#x25b;" horiz-adv-x="883" 
d="M792 280q28 0 28 -28.5t-34 -86.5q-110 -189 -326 -189q-148 0 -260 61q-138 75 -138 211q0 99 74 161.5t179 86.5q-93 22 -154 84t-61 153q0 123 132 182q98 45 221 45t210 -28q123 -40 123 -122q0 -33 -24.5 -55.5t-60.5 -22.5t-67 47q-52 77 -61 86q-47 47 -126 47
q-202 0 -202 -194q0 -188 199 -188q22 0 63 11t63 11q86 0 86 -55.5t-87 -55.5q-21 0 -62.5 11t-62.5 11q-224 0 -224 -205q0 -228 255 -228q204 0 290 221q11 29 27 29z" />
    <glyph glyph-name="uni0269" unicode="&#x269;" horiz-adv-x="748" 
d="M695 266q0 -114 -48 -194q-58 -96 -164 -96q-133 0 -203 78t-70 212v473q0 86 -41 106q-20 11 -103 11h-14v67l299 23v-685q0 -231 148 -231q102 0 131 139q12 56 12 182v37h53v-122z" />
    <glyph glyph-name="uni0275" unicode="&#x275;" horiz-adv-x="1054" 
d="M191.5 118.5q-138.5 142.5 -138.5 341.5t138 349.5t336.5 150.5t336.5 -151t138 -350.5t-139 -341t-336 -141.5t-335.5 142.5zM767 773q-84 138 -244.5 138t-241.5 -143q-49 -87 -51 -256h593q-2 173 -56 261zM285 174q83 -144 246.5 -144t244.5 158q45 89 47 256h-593
q2 -178 55 -270z" />
    <glyph glyph-name="uni0277" unicode="&#x277;" horiz-adv-x="1419" 
d="M1335 467q0 -179 -91 -322q-104 -165 -273 -165q-230 0 -258 270h-6q-29 -270 -258 -270q-169 0 -274 165q-91 143 -91 322q0 235 191.5 381.5t431.5 146.5t426 -142q202 -154 202 -386zM1147 471q0 200 -119.5 338.5t-317 138.5t-318 -140t-120.5 -341q0 -428 199 -428
q100 0 151 100q40 78 40 189q0 59 -24 173.5t-24 172.5q0 114 97 114q94 0 94 -114q0 -58 -22.5 -172.5t-22.5 -173.5q0 -112 38 -189q50 -100 150 -100q199 0 199 432z" />
    <glyph glyph-name="uni0278" unicode="&#x278;" horiz-adv-x="1195" 
d="M429 1265l-68 -2v66q198 -6 225.5 -6t248.5 6v-66h-24q-53 0 -82 -3q-36 -5 -49 -24t-13 -69v-211q204 -24 339.5 -169.5t135.5 -327.5t-136 -319t-339 -160v-218q0 -50 13 -69t49 -23q29 -4 82 -4h24v-66q-221 6 -248.5 6t-225.5 -6v66l68 -2q98 0 98 98v218
q-203 23 -338.5 160.5t-135.5 319.5t134.5 326.5t339.5 169.5v211q0 98 -98 98zM908 199q55 93 55 281.5t-66 282.5q-81 115 -230 142v-869q162 29 241 163zM290 757q-60 -92 -60 -284t64 -289q80 -119 233 -147v868q-159 -29 -237 -148z" />
    <glyph glyph-name="uni0283" unicode="&#x283;" horiz-adv-x="967" 
d="M915 1359q0 -94 -95 -94q-39 0 -65.5 26t-26.5 65q0 69 64 91q-33 15 -70 15q-96 0 -151 -102q-46 -84 -46 -189v-1224q0 -141 -95.5 -240t-236.5 -99q-72 0 -132.5 40.5t-60.5 108.5q0 94 95 94q39 0 65.5 -26t26.5 -65q0 -69 -64 -91q33 -15 70 -15q96 0 151 102
q46 84 46 189v1224q0 141 95.5 240t236.5 99q72 0 132.5 -40.5t60.5 -108.5z" />
    <glyph glyph-name="uni0298" unicode="&#x298;" horiz-adv-x="1090" 
d="M1037 468q0 -204 -144 -348t-348 -144t-348 144t-144 348t144 348t348 144t348 -144t144 -348zM873 468q0 177 -74 296q-88 142 -254 142t-254 -142q-74 -119 -74 -296t74 -296q88 -142 254 -142t254 142q74 119 74 296zM662 468q0 -48 -34.5 -82.5t-82.5 -34.5
t-82.5 34.5t-34.5 82.5t34.5 82.5t82.5 34.5t82.5 -34.5t34.5 -82.5z" />
    <glyph glyph-name="uni02B9" unicode="&#x2b9;" horiz-adv-x="448" 
d="M403 1316q0 -21 -11.5 -54t-72.5 -164l-138 -295h-44l31 296q14 129 26 171q35 117 131 117q78 0 78 -71z" />
    <glyph glyph-name="uni02BB" unicode="&#x2bb;" horiz-adv-x="861" 
d="M523 1158.5q33 -32.5 33 -81.5t-33.5 -81.5t-83.5 -32.5q-69 0 -101.5 62.5t-32.5 139.5q0 204 143 324q32 27 46 27q22 0 22 -23q0 -10 -25 -32l-45 -39q-42 -43 -69 -119t-27 -141v-13q33 42 86.5 42t86.5 -32.5z" />
    <glyph glyph-name="afii57929" unicode="&#x2bc;" horiz-adv-x="861" 
d="M556 1314q0 -204 -143 -324q-32 -27 -46 -27q-22 0 -22 23q0 10 25 32l45 39q42 43 69 119t27 141v13q-33 -42 -86.5 -42t-86.5 32.5t-33 81.5t33.5 81.5t83.5 32.5q69 0 101.5 -62.5t32.5 -139.5z" />
    <glyph glyph-name="afii64937" unicode="&#x2bd;" horiz-adv-x="861" 
d="M522.5 1483.5q33.5 -32.5 33.5 -81.5t-33 -81.5t-86.5 -32.5t-86.5 42v-13q0 -65 27 -141t69 -119l45 -39q25 -22 25 -32q0 -23 -22 -23q-14 0 -46 27q-143 120 -143 324q0 77 32.5 139.5t101.5 62.5q50 0 83.5 -32.5z" />
    <glyph glyph-name="uni02BE" unicode="&#x2be;" horiz-adv-x="682" 
d="M438 1233q0 -81 -55.5 -136.5t-135.5 -55.5v70q51 0 86.5 35.5t35.5 86.5t-35.5 86.5t-86.5 35.5v69q81 0 136 -55t55 -136z" />
    <glyph glyph-name="uni02BF" unicode="&#x2bf;" horiz-adv-x="682" 
d="M438 1041q-80 0 -135.5 55.5t-55.5 136.5t55 136t136 55v-69q-51 0 -86.5 -35.5t-35.5 -86.5t35.5 -86.5t86.5 -35.5v-70z" />
    <glyph glyph-name="uni02C2" unicode="&#x2c2;" horiz-adv-x="1155" 
d="M1115 187l-1076 470v49l1076 466v-87l-926 -402l926 -406v-90z" />
    <glyph glyph-name="uni02C3" unicode="&#x2c3;" horiz-adv-x="1155" 
d="M1113 653l-1076 -466v86l927 402l-927 406v91l1076 -470v-49z" />
    <glyph glyph-name="uni02C4" unicode="&#x2c4;" horiz-adv-x="1155" 
d="M1068 142h-90l-406 926l-402 -926h-87l466 1076h49z" />
    <glyph glyph-name="uni02C5" unicode="&#x2c5;" horiz-adv-x="1155" 
d="M1068 1218l-470 -1076h-49l-466 1076h87l402 -926l406 926h90z" />
    <glyph glyph-name="uni02C8" unicode="&#x2c8;" horiz-adv-x="682" 
d="M392 1088h-103v332h103v-332z" />
    <glyph glyph-name="uni02CA" unicode="&#x2ca;" horiz-adv-x="682" 
d="M565 1390l-295 -345h-34l105 345h224z" />
    <glyph glyph-name="uni02CB" unicode="&#x2cb;" horiz-adv-x="682" 
d="M447 1045h-35l-294 345h223z" />
    <glyph glyph-name="ring" unicode="&#x2da;" horiz-adv-x="682" 
d="M477 1368.5q56 -55.5 56 -136t-55.5 -136t-136 -55.5t-136 56t-55.5 136t55.5 135.5t135.5 55.5t136 -55.5zM463 1233q0 51 -35.5 86.5t-86.5 35.5t-86.5 -35.5t-35.5 -86.5t35.5 -86.5t86.5 -35.5t86.5 35.5t35.5 86.5z" />
    <glyph glyph-name="uni02E5" unicode="&#x2e5;" horiz-adv-x="784" 
d="M634 0h-156v1310h-328v156h484v-1466z" />
    <glyph glyph-name="uni02E9" unicode="&#x2e9;" horiz-adv-x="784" 
d="M634 0h-484v156h328v1310h156v-1466z" />
    <glyph glyph-name="gravecomb" unicode="&#x300;" horiz-adv-x="0" 
d="M426 1476q-28 23 -28 54t23 53.5t54 22.5t53 -29l248 -322l-37 -35z" />
    <glyph glyph-name="acutecomb" unicode="&#x301;" horiz-adv-x="0" 
d="M753 1583.5q23 -22.5 23 -53.5t-28 -54l-313 -256l-37 35l248 322q22 29 53 29t54 -22.5z" />
    <glyph glyph-name="uni0307" unicode="&#x307;" horiz-adv-x="0" 
d="M666 1574q32 -32 32 -78.5t-32 -79t-78 -32.5t-79 33.5t-33 78t33.5 77.5t79 33t77.5 -32z" />
    <glyph glyph-name="uni030A" unicode="&#x30a;" horiz-adv-x="0" 
d="M708 1557q50 -49 50 -120.5t-49.5 -122t-120.5 -50.5t-121.5 51.5t-50.5 120.5t51 119.5t121 50.5t120 -49zM666 1356.5q32 32.5 32 79t-32 78.5t-77.5 32t-79 -33t-33.5 -77.5t33 -78t79 -33.5t78 32.5z" />
    <glyph glyph-name="uni0312" unicode="&#x312;" horiz-adv-x="0" 
d="M769 1579q0 -13 -34 -23t-61 -17q-129 -47 -157 -177q28 21 71 21t78 -32t35 -79.5t-32 -82t-86 -34.5t-86 42t-32 104q0 107 67 189t172 109q27 7 43 7q22 0 22 -27z" />
    <glyph glyph-name="uni0317" unicode="&#x317;" horiz-adv-x="0" 
d="M723 -78.5q23 -22.5 23 -53.5t-28 -54l-313 -256l-37 35l248 322q22 29 53 29t54 -22.5z" />
    <glyph glyph-name="uni0334" unicode="&#x334;" horiz-adv-x="0" 
d="M1079 659q0 -111 -71.5 -195t-175.5 -84t-251.5 116.5t-233.5 116.5q-138 0 -179 -131q-6 -29 -15.5 -65t-27.5 -36q-30 0 -30 57q0 109 72.5 193.5t176.5 84.5t251 -117t236.5 -117t136.5 60q27 35 46 104t37 69q28 0 28 -56z" />
    <glyph glyph-name="uni0335" unicode="&#x335;" horiz-adv-x="0" 
d="M1012 582q0 -41 -37 -41h-774q-39 0 -39 41t39 41h774q37 0 37 -41z" />
    <glyph glyph-name="uni0336" unicode="&#x336;" horiz-adv-x="0" 
d="M2049 582q0 -41 -37 -41h-1674q-39 0 -39 41t39 41h1674q37 0 37 -41z" />
    <glyph glyph-name="uni0337" unicode="&#x337;" horiz-adv-x="0" 
d="M854 1205q0 -7 -2 -13l-453 -1248q-9 -26 -40 -26q-39 0 -39 41q0 7 2 13l453 1248q9 26 40 26q39 0 39 -41z" />
    <glyph glyph-name="uni0338" unicode="&#x338;" horiz-adv-x="0" 
d="M964 1505q0 -8 -2 -13l-673 -1848q-9 -26 -40 -26q-39 0 -39 41q0 8 2 13l673 1848q9 26 40 26q39 0 39 -41z" />
    <glyph glyph-name="uni034F" unicode="&#x34f;" horiz-adv-x="0" 
 />
    <glyph glyph-name="uni0370" unicode="&#x370;" horiz-adv-x="1153" 
d="M649 1284l-55 2q-123 0 -142 -36q-8 -16 -8 -45v-477h375q134 0 173.5 46.5t39.5 182.5h54v-521h-54q0 136 -40 183t-173 47h-375v-525q0 -29 8 -45q18 -35 187 -35h10v-61q-71 6 -115 6h-358q-37 0 -108 -6v61q9 0 27.5 -0.5t28.5 -0.5q121 0 139 36q7 14 7 45v1064
q0 31 -7 45q-17 34 -149 34h-46v62q70 -6 112 -6h354q45 0 115 6v-62z" />
    <glyph glyph-name="uni0371" unicode="&#x371;" horiz-adv-x="849" 
d="M797 431h-446v-431h-141v739q0 86 -41 106q-20 11 -103 11h-14v67l299 23v-415h446v-100z" />
    <glyph glyph-name="uni0372" unicode="&#x372;" horiz-adv-x="1511" 
d="M943 1271q-100 0 -100 -79v-1052q0 -53 40 -70q24 -11 64.5 -11t79.5 1v-61q-68 6 -113 6h-317q-45 0 -113 -6v61q39 -1 79.5 -1t64.5 11q40 17 40 70v1052q0 79 -100 79q-240 0 -332 -187q-53 -108 -80 -398h-76l42 657h1267l42 -657h-76q-27 290 -80 398
q-92 187 -332 187z" />
    <glyph glyph-name="uni0373" unicode="&#x373;" horiz-adv-x="1122" 
d="M1073 630h-45q-6 76 -48.5 129.5t-115.5 53.5h-229v-813h-148v813h-229q-73 0 -115.5 -53.5t-48.5 -129.5h-45v35q0 95 72.5 176.5t166.5 81.5h546q94 0 166.5 -81.5t72.5 -176.5v-35z" />
    <glyph glyph-name="uni0374" unicode="&#x374;" horiz-adv-x="506" 
d="M409 1490.5q27 -23.5 27 -49t-8 -44.5l-285 -664q-4 -10 -12 -10q-50 0 -50 33q0 5 2 12l187 684q17 62 77 62q35 0 62 -23.5z" />
    <glyph glyph-name="uni0375" unicode="&#x375;" horiz-adv-x="506" 
d="M425 321q0 -5 -2 -12l-187 -684q-17 -62 -77 -62q-35 0 -62 23.5t-27 49t8 44.5l285 664q4 10 12 10q50 0 50 -33z" />
    <glyph glyph-name="uni0376" unicode="&#x376;" horiz-adv-x="1631" 
d="M1564 1284l-56 2q-122 0 -140 -36q-8 -16 -8 -45v-1064q0 -29 8 -45q18 -35 186 -35h10v-61q-71 6 -113 6h-361q-36 0 -107 -6v61q9 0 28 -0.5t29 -0.5q119 0 137 36q8 16 8 45v964l-734 -1008l1 -1q14 -30 90 -35q3 0 30 -0.5t77 0.5v-61q-71 6 -115 6h-358
q-37 0 -108 -6v61q9 0 27.5 -0.5t28.5 -0.5q121 0 139 36q7 14 7 45v1064q0 31 -7 45q-17 34 -149 34h-46v62q70 -6 112 -6h354q45 0 115 6v-62l-55 2q-123 0 -142 -36q-8 -16 -8 -45v-967l734 1009q-15 37 -149 37h-46v62q70 -6 112 -6h356q43 0 113 6v-62z" />
    <glyph glyph-name="uni0377" unicode="&#x377;" horiz-adv-x="1123" 
d="M870 347v390l-519 -677v-60h-141v739q0 86 -41 106q-20 11 -103 11h-14v67l299 23v-760l565 737h102v-600q0 -140 40 -323h-148q-40 135 -40 347z" />
    <glyph glyph-name="uni0378" unicode="&#x378;" horiz-adv-x="1234" 
d="M1152 -267h-1070v1698h1070v-1698zM1078 -193v1550h-922v-1550h922zM1070 1070l-333 279h81l252 -211v-68zM1070 770l-690 579h81l609 -511v-68zM1070 470l-906 760v68l906 -760v-68zM1070 170l-906 760v68l906 -760v-68zM1070 -130l-906 760v68l906 -760v-68zM859 -185
h-81l-614 515v68zM501 -185h-81l-256 215v68z" />
    <glyph glyph-name="uni0379" unicode="&#x379;" horiz-adv-x="1234" 
d="M1152 -267h-1070v1698h1070v-1698zM1078 -193v1550h-922v-1550h922zM1070 1070l-333 279h81l252 -211v-68zM1070 770l-690 579h81l609 -511v-68zM1070 470l-906 760v68l906 -760v-68zM1070 170l-906 760v68l906 -760v-68zM1070 -130l-906 760v68l906 -760v-68zM859 -185
h-81l-614 515v68zM501 -185h-81l-256 215v68z" />
    <glyph glyph-name="uni037A" unicode="&#x37a;" horiz-adv-x="982" 
d="M388 -359q0 -83 -89 -83t-89 81q0 14 3 27l55 242q6 26 30.5 26t30.5 -26l56 -242q3 -13 3 -25z" />
    <glyph glyph-name="uni037B" unicode="&#x37b;" horiz-adv-x="920" 
d="M406 960q198 0 330 -149t132 -347.5t-132.5 -343t-326.5 -144.5q-223 0 -329 203q-27 52 -27 74.5t29 22.5q19 0 53 -72.5t74 -109.5q68 -64 181 -64q60 0 123 34q178 96 178 404t-168 403q-60 34 -120 34q-85 0 -128 -56q-4 -6 -52 -105q-27 -56 -74 -56q-81 0 -81 83
t131 141q108 48 207 48z" />
    <glyph glyph-name="uni037C" unicode="&#x37c;" horiz-adv-x="920" 
d="M839 276q29 0 29 -22.5t-27 -74.5q-106 -203 -329 -203q-194 0 -326.5 144.5t-132.5 343t132 347.5t330 149q99 0 207 -48q131 -58 131 -141t-81 -83q-47 0 -74 56q-48 99 -52 105q-43 56 -128 56q-60 0 -120 -34q-168 -95 -168 -403t178 -404q63 -34 123 -34
q113 0 181 64q40 37 74 109.5t53 72.5zM620 466q0 -46 -32 -78t-78 -32t-78 32t-32 78t32 78t78 32t78 -32t32 -78z" />
    <glyph glyph-name="uni037D" unicode="&#x37d;" horiz-adv-x="920" 
d="M406 960q198 0 330 -149t132 -347.5t-132.5 -343t-326.5 -144.5q-223 0 -329 203q-27 52 -27 74.5t29 22.5q19 0 53 -72.5t74 -109.5q68 -64 181 -64q60 0 123 34q178 96 178 404t-168 403q-60 34 -120 34q-85 0 -128 -56q-4 -6 -52 -105q-27 -56 -74 -56q-81 0 -81 83
t131 141q108 48 207 48zM521 466q0 -46 -32 -78t-78 -32t-78 32t-32 78t32 78t78 32t78 -32t32 -78z" />
    <glyph glyph-name="uni037E" unicode="&#x37e;" horiz-adv-x="536" 
d="M334.5 801q30.5 -31 30.5 -72.5t-30.5 -71.5t-72 -30t-72 30t-30.5 71.5t30.5 72.5t72 31t72 -31zM263 204q107 0 107 -203.5t-124 -343.5q-25 -29 -36 -29q-19 0 -19 21q0 9 13 26q124 152 123 347q-15 -15 -49 -20q-3 -2 -11 -2q-107 0 -107 102q0 44 29 73t74 29z" />
    <glyph glyph-name="uni037F" unicode="&#x37f;" horiz-adv-x="1234" 
d="M1152 -267h-1070v1698h1070v-1698zM1078 -193v1550h-922v-1550h922zM1070 1070l-333 279h81l252 -211v-68zM1070 770l-690 579h81l609 -511v-68zM1070 470l-906 760v68l906 -760v-68zM1070 170l-906 760v68l906 -760v-68zM1070 -130l-906 760v68l906 -760v-68zM859 -185
h-81l-614 515v68zM501 -185h-81l-256 215v68z" />
    <glyph glyph-name="uni0380" unicode="&#x380;" horiz-adv-x="1234" 
d="M1152 -267h-1070v1698h1070v-1698zM1078 -193v1550h-922v-1550h922zM1070 1070l-333 279h81l252 -211v-68zM1070 770l-690 579h81l609 -511v-68zM1070 470l-906 760v68l906 -760v-68zM1070 170l-906 760v68l906 -760v-68zM1070 -130l-906 760v68l906 -760v-68zM859 -185
h-81l-614 515v68zM501 -185h-81l-256 215v68z" />
    <glyph glyph-name="uni0381" unicode="&#x381;" horiz-adv-x="1234" 
d="M1152 -267h-1070v1698h1070v-1698zM1078 -193v1550h-922v-1550h922zM1070 1070l-333 279h81l252 -211v-68zM1070 770l-690 579h81l609 -511v-68zM1070 470l-906 760v68l906 -760v-68zM1070 170l-906 760v68l906 -760v-68zM1070 -130l-906 760v68l906 -760v-68zM859 -185
h-81l-614 515v68zM501 -185h-81l-256 215v68z" />
    <glyph glyph-name="uni0382" unicode="&#x382;" horiz-adv-x="1234" 
d="M1152 -267h-1070v1698h1070v-1698zM1078 -193v1550h-922v-1550h922zM1070 1070l-333 279h81l252 -211v-68zM1070 770l-690 579h81l609 -511v-68zM1070 470l-906 760v68l906 -760v-68zM1070 170l-906 760v68l906 -760v-68zM1070 -130l-906 760v68l906 -760v-68zM859 -185
h-81l-614 515v68zM501 -185h-81l-256 215v68z" />
    <glyph glyph-name="uni0383" unicode="&#x383;" horiz-adv-x="1234" 
d="M1152 -267h-1070v1698h1070v-1698zM1078 -193v1550h-922v-1550h922zM1070 1070l-333 279h81l252 -211v-68zM1070 770l-690 579h81l609 -511v-68zM1070 470l-906 760v68l906 -760v-68zM1070 170l-906 760v68l906 -760v-68zM1070 -130l-906 760v68l906 -760v-68zM859 -185
h-81l-614 515v68zM501 -185h-81l-256 215v68z" />
    <glyph glyph-name="tonos" unicode="&#x384;" horiz-adv-x="564" 
d="M408 1457q0 -20 -17 -48l-144 -237q-25 -41 -51 -41t-26 24q0 11 8 33l100 278q13 36 60 36q70 0 70 -45z" />
    <glyph glyph-name="dieresistonos" unicode="&#x385;" horiz-adv-x="574" 
d="M484 1561q0 -20 -17 -48l-144 -237q-25 -41 -51 -41t-26 24q0 11 8 33l100 278q13 36 60 36q70 0 70 -45zM574 1233q0 -42 -29.5 -72t-71 -30t-71 30.5t-29.5 71t30 70.5t71 30t70.5 -29t29.5 -71zM202 1233q0 -42 -29.5 -72t-71 -30t-71.5 30.5t-30 71t30.5 70.5
t71.5 30t70.5 -29t29.5 -71z" />
    <glyph glyph-name="Alphatonos" unicode="&#x386;" horiz-adv-x="1484" 
d="M1417 0q-127 6 -297.5 6t-244.5 -6v61h5q157 0 157 59q0 29 -39 136l-70 192h-487l-61 -163q-34 -90 -34 -123q0 -51 52 -78q42 -23 97 -23v-61q-189 6 -239.5 6t-187.5 -6v61q174 2 219 133l409 1177q14 40 46 40t46 -40l425 -1231q21 -61 84 -75q19 -5 77 -5q19 0 43 1
v-61zM906 510l-222 641l-220 -641h442zM318 1324q0 -20 -17 -48l-144 -237q-25 -41 -51 -41t-26 24q0 11 8 33l100 278q13 36 60 36q70 0 70 -45z" />
    <glyph glyph-name="anoteleia" unicode="&#x387;" horiz-adv-x="547" 
d="M378 837q0 -42 -31 -73t-73.5 -31t-73.5 31t-31 73t31 73t73.5 31t73.5 -31t31 -73z" />
    <glyph glyph-name="Epsilontonos" unicode="&#x388;" horiz-adv-x="1797" 
d="M511 0v61q47 -1 53 -1q125 0 142 38q7 16 7 48v1053q0 30 -7 47q-15 36 -152 36q-20 0 -43 -1v62h1108l56 -442h-49q-24 218 -99.5 299t-288.5 81h-263q-54 0 -71 -13.5t-17 -65.5v-474h178q134 0 173.5 46.5t39.5 182.5h51v-521h-51q0 136 -40 183t-173 47h-178v-526
q0 -52 17 -65.5t71 -13.5h273q236 0 326 111q67 84 107 336h49l-84 -508h-1135zM271 1324q0 -20 -17 -48l-144 -237q-25 -41 -51 -41t-26 24q0 11 8 33l100 278q13 36 60 36q70 0 70 -45z" />
    <glyph glyph-name="Etatonos" unicode="&#x389;" horiz-adv-x="1923" 
d="M1856 1284l-56 2q-122 0 -140 -36q-8 -16 -8 -45v-1064q0 -29 8 -45q18 -35 186 -35h10v-61q-71 6 -113 6h-361q-36 0 -107 -6v61q9 0 28 -0.5t29 -0.5q119 0 137 36q8 16 8 45v530h-590v-530q0 -29 8 -45q18 -35 187 -35h10v-61q-71 6 -115 6h-358q-37 0 -108 -6v61
q9 0 27.5 -0.5t28.5 -0.5q121 0 139 36q7 14 7 45v1064q0 31 -7 45q-17 34 -149 34h-46v62q70 -6 112 -6h354q45 0 115 6v-62l-55 2q-123 0 -142 -36q-8 -16 -8 -45v-474h590v474q0 29 -8 45q-17 34 -148 34h-46v62q70 -6 112 -6h356q43 0 113 6v-62zM271 1324
q0 -20 -17 -48l-144 -237q-25 -41 -51 -41t-26 24q0 11 8 33l100 278q13 36 60 36q70 0 70 -45z" />
    <glyph glyph-name="Iotatonos" unicode="&#x38a;" horiz-adv-x="1179" 
d="M1113 1284l-59 2q-75 0 -103 -9q-53 -18 -53 -76v-1057q0 -27 13.5 -52t91.5 -31h110v-61q-71 6 -117 6h-373q-41 0 -112 -6v61q8 0 27.5 -0.5t29.5 -0.5q128 0 147 36q9 17 9 49v1056q0 32 -9 49q-18 34 -153 34h-51v62q71 -6 115 -6h376q41 0 111 6v-62zM271 1324
q0 -20 -17 -48l-144 -237q-25 -41 -51 -41t-26 24q0 11 8 33l100 278q13 36 60 36q70 0 70 -45z" />
    <glyph glyph-name="uni038B" unicode="&#x38b;" horiz-adv-x="1234" 
d="M1152 -267h-1070v1698h1070v-1698zM1078 -193v1550h-922v-1550h922zM1070 1070l-333 279h81l252 -211v-68zM1070 770l-690 579h81l609 -511v-68zM1070 470l-906 760v68l906 -760v-68zM1070 170l-906 760v68l906 -760v-68zM1070 -130l-906 760v68l906 -760v-68zM859 -185
h-81l-614 515v68zM501 -185h-81l-256 215v68z" />
    <glyph glyph-name="Omicrontonos" unicode="&#x38c;" horiz-adv-x="1788" 
d="M1065 -43q-280 0 -467 214t-187 498.5t186.5 502.5t468 218t468 -217.5t186.5 -503t-187.5 -499t-467.5 -213.5zM1518 696q0 438 -260 590q-92 54 -192 54t-191 -53q-262 -153 -262 -591q0 -469 265 -632q91 -56 185 -56t188 55q267 156 267 633zM271 1324q0 -20 -17 -48
l-144 -237q-25 -41 -51 -41t-26 24q0 11 8 33l100 278q13 36 60 36q70 0 70 -45z" />
    <glyph glyph-name="uni038D" unicode="&#x38d;" horiz-adv-x="1234" 
d="M1152 -267h-1070v1698h1070v-1698zM1078 -193v1550h-922v-1550h922zM1070 1070l-333 279h81l252 -211v-68zM1070 770l-690 579h81l609 -511v-68zM1070 470l-906 760v68l906 -760v-68zM1070 170l-906 760v68l906 -760v-68zM1070 -130l-906 760v68l906 -760v-68zM859 -185
h-81l-614 515v68zM501 -185h-81l-256 215v68z" />
    <glyph glyph-name="Upsilontonos" unicode="&#x38e;" horiz-adv-x="1868" 
d="M1800 1068q0 -33 -31 -33q-23 0 -31 30q-4 24 -9 48q-16 49 -72.5 77.5t-112.5 28.5q-171 0 -252 -200q-59 -145 -59 -346v-529q0 -29 7 -44q19 -40 190 -40q26 0 55 1v-61q-76 6 -159 6h-362q-83 0 -159 -6v61l75 -1q147 0 170 41q8 14 8 42v530q0 201 -59 347
q-82 199 -253 199q-55 0 -108.5 -26.5t-70.5 -73.5q-6 -26 -14.5 -55t-31.5 -29q-30 0 -30 33q0 116 72 209t185 93q174 0 282 -159q84 -124 115 -319h2q30 194 115 319q108 159 280 159q113 0 185.5 -93t72.5 -209zM271 1324q0 -20 -17 -48l-144 -237q-25 -41 -51 -41
t-26 24q0 11 8 33l100 278q13 36 60 36q70 0 70 -45z" />
    <glyph glyph-name="Omegatonos" unicode="&#x38f;" horiz-adv-x="1725" 
d="M1266 0q-25 0 -31.5 7t-6.5 33q0 150 101 429t101 429q0 186 -107 317t-289 131t-289 -131t-107 -317q0 -150 101 -429t101 -429q0 -40 -39 -40h-326l-64 320h48q17 -115 35.5 -146t36 -38.5t58.5 -7.5h194q-27 111 -120 256q-144 223 -153 240q-76 141 -76 272
q0 221 194 364q177 130 406 130t405 -130q194 -143 194 -364q0 -131 -76 -272q-9 -18 -153 -240q-93 -145 -120 -256h195q41 0 58 7.5t35.5 38t35.5 146.5h49l-64 -320h-327zM271 1324q0 -20 -17 -48l-144 -237q-25 -41 -51 -41t-26 24q0 11 8 33l100 278q13 36 60 36
q70 0 70 -45z" />
    <glyph glyph-name="iotadieresistonos" unicode="&#x390;" horiz-adv-x="748" 
d="M695 266q0 -114 -48 -194q-58 -96 -164 -96q-133 0 -203 78t-70 212v473q0 86 -41 106q-20 11 -103 11h-14v67l299 23v-685q0 -231 148 -231q102 0 131 139q12 56 12 182v37h53v-122zM484 1561q0 -20 -17 -48l-144 -237q-25 -41 -51 -41t-26 24q0 11 8 33l100 278
q13 36 60 36q70 0 70 -45zM574 1233q0 -42 -29.5 -72t-71 -30t-71 30.5t-29.5 71t30 70.5t71 30t70.5 -29t29.5 -71zM202 1233q0 -42 -29.5 -72t-71 -30t-71.5 30.5t-30 71t30.5 70.5t71.5 30t70.5 -29t29.5 -71z" />
    <glyph glyph-name="Alpha" unicode="&#x391;" horiz-adv-x="1484" 
d="M1417 0q-127 6 -297.5 6t-244.5 -6v61h5q157 0 157 59q0 29 -39 136l-70 192h-487l-61 -163q-34 -90 -34 -123q0 -51 52 -78q42 -23 97 -23v-61q-189 6 -239.5 6t-187.5 -6v61q174 2 219 133l409 1177q14 40 46 40t46 -40l425 -1231q21 -61 84 -75q19 -5 77 -5q19 0 43 1
v-61zM906 510l-222 641l-220 -641h442z" />
    <glyph glyph-name="Beta" unicode="&#x392;" horiz-adv-x="1346" 
d="M1278 360q0 -161 -135.5 -260.5t-302.5 -99.5h-772v61q62 -2 63 -2q113 0 134 45q5 11 5 42v1051q0 31 -5 42q-19 43 -152 43q-21 0 -45 -1v62h720q161 0 290 -83q148 -95 148 -247q0 -120 -98.5 -203t-227.5 -108q147 -16 262.5 -109t115.5 -233zM720 721
q129 0 221.5 82t92.5 202.5t-73 198t-186 77.5h-255q-53 0 -69.5 -13t-16.5 -66v-481h286zM994 147q88 86 88 214t-76.5 222t-200.5 94h-371v-537q0 -53 16.5 -66t69.5 -13h257q129 0 217 86z" />
    <glyph glyph-name="Gamma" unicode="&#x393;" horiz-adv-x="1216" 
d="M744 1281h-214q-51 0 -68.5 -13t-17.5 -66v-1065q0 -22 8 -39q17 -37 223 -37h22v-61q-74 6 -120 6h-382q-55 0 -127 -6v61q8 0 26 -0.5t28 -0.5q124 0 141 38q7 15 7 48v1053q0 31 -7 47q-15 35 -170 35h-25v62h1026l55 -442h-49q-24 212 -82 285q-74 95 -274 95z" />
    <glyph glyph-name="Delta" unicode="&#x394;" horiz-adv-x="1202" 
d="M1135 15q0 -15 -24 -15h-1021q-22 0 -22 11t130 377l319 898q10 30 33 89q16 36 52 36t49 -36l473 -1337q11 -31 11 -23zM918 149l-369 1046l-369 -1046h738z" />
    <glyph glyph-name="Epsilon" unicode="&#x395;" horiz-adv-x="1354" 
d="M68 0v61q47 -1 53 -1q125 0 142 38q7 16 7 48v1053q0 30 -7 47q-15 36 -152 36q-20 0 -43 -1v62h1108l56 -442h-49q-24 218 -99.5 299t-288.5 81h-263q-54 0 -71 -13.5t-17 -65.5v-474h178q134 0 173.5 46.5t39.5 182.5h51v-521h-51q0 136 -40 183t-173 47h-178v-526
q0 -52 17 -65.5t71 -13.5h273q236 0 326 111q67 84 107 336h49l-84 -508h-1135z" />
    <glyph glyph-name="Zeta" unicode="&#x396;" horiz-adv-x="1128" 
d="M101 0q-33 0 -33 33q0 21 13 41l766 1207h-310q-206 0 -294 -87.5t-100 -293.5h-51l22 443h900q34 0 34 -32q0 -16 -14 -38l-764 -1205h324q239 0 329 114q76 95 89 344h49l-35 -526h-925z" />
    <glyph glyph-name="Eta" unicode="&#x397;" horiz-adv-x="1480" 
d="M1413 1284l-56 2q-122 0 -140 -36q-8 -16 -8 -45v-1064q0 -29 8 -45q18 -35 186 -35h10v-61q-71 6 -113 6h-361q-36 0 -107 -6v61q9 0 28 -0.5t29 -0.5q119 0 137 36q8 16 8 45v530h-590v-530q0 -29 8 -45q18 -35 187 -35h10v-61q-71 6 -115 6h-358q-37 0 -108 -6v61
q9 0 27.5 -0.5t28.5 -0.5q121 0 139 36q7 14 7 45v1064q0 31 -7 45q-17 34 -149 34h-46v62q70 -6 112 -6h354q45 0 115 6v-62l-55 2q-123 0 -142 -36q-8 -16 -8 -45v-474h590v474q0 29 -8 45q-17 34 -148 34h-46v62q70 -6 112 -6h356q43 0 113 6v-62z" />
    <glyph glyph-name="Theta" unicode="&#x398;" horiz-adv-x="1445" 
d="M722 -43q-280 0 -467 214t-187 498.5t186.5 502.5t468 218t468 -217.5t186.5 -503t-187.5 -499t-467.5 -213.5zM1175 696q0 438 -260 590q-92 54 -192 54t-191 -53q-262 -153 -262 -591q0 -469 265 -632q91 -56 185 -56t188 55q267 156 267 633zM1054 532h-50v68h-564
v-68h-49v284h49v-68h564v68h50v-284z" />
    <glyph glyph-name="Iota" unicode="&#x399;" horiz-adv-x="736" 
d="M670 1284l-59 2q-75 0 -103 -9q-53 -18 -53 -76v-1057q0 -27 13.5 -52t91.5 -31h110v-61q-71 6 -117 6h-373q-41 0 -112 -6v61q8 0 27.5 -0.5t29.5 -0.5q128 0 147 36q9 17 9 49v1056q0 32 -9 49q-18 34 -153 34h-51v62q71 -6 115 -6h376q41 0 111 6v-62z" />
    <glyph glyph-name="Kappa" unicode="&#x39a;" horiz-adv-x="1519" 
d="M649 1284l-57 2q-126 0 -142 -40q-6 -15 -6 -44v-636l618 588q36 34 36 67q0 61 -91 63v62q69 -6 217.5 -6t201.5 6v-62q-160 -2 -281 -118l-356 -340l456 -670q42 -62 83.5 -78.5t122.5 -16.5v-61q-127 6 -281.5 6t-225.5 -6v61h4q113 0 113 59q0 22 -31 68l-357 528
l-229 -218v-359q0 -28 9 -45q17 -33 186 -33h10v-61q-71 6 -120 6h-347q-43 0 -114 -6v61q8 0 26.5 -0.5t28.5 -0.5q125 0 141 40q6 15 6 44v1066q0 27 -7 41q-16 33 -176 33h-19v62q70 -6 119 -6h342q50 0 120 6v-62z" />
    <glyph glyph-name="Lambda" unicode="&#x39b;" horiz-adv-x="1374" 
d="M963 6q-110 0 -182 -6v61h5q161 0 161 59q0 16 -59 199l-262 806l-296 -919q-9 -28 -9 -42q0 -51 47.5 -76.5t104.5 -26.5v-61q-183 6 -244 6t-161 -6v61h2q149 0 193 136l380 1172q14 42 45 42t45 -42l394 -1223q6 -20 25 -56q25 -29 141 -29h15v-61q-235 6 -345 6z" />
    <glyph glyph-name="Mu" unicode="&#x39c;" horiz-adv-x="1793" 
d="M1726 1281l-56 2q-125 0 -141 -41q-6 -15 -6 -45v-1058q0 -26 8 -43q17 -35 185 -35h10v-61q-75 6 -119 6h-334q-38 0 -113 -6v61h76q63 0 87 10q40 17 40 70v1140h-2l-483 -1245q-14 -36 -36 -36t-39 43l-476 1222h-2v-1064q0 -140 200 -140h3v-61q-209 6 -229 6
t-231 -6v61h3q199 0 199 140v1003q0 22 -6 38q-12 32 -89 39q-6 1 -32.5 1t-74.5 -1v62h341q45 0 61 -42l428 -1102l430 1108q14 36 49 36h349v-62z" />
    <glyph glyph-name="Nu" unicode="&#x39d;" horiz-adv-x="1480" 
d="M1209 1139v-1107q0 -32 -26 -32q-16 0 -34 26l-805 1178q-12 17 -19 25v-1028q0 -140 200 -140h3v-61q-208 6 -230 6t-230 -6v61h3q199 0 199 140v1032q0 29 -8 35q-19 13 -194 13v62h342q30 0 48 -26l696 -1019v847q0 139 -203 139v62q205 -6 231.5 -6t230.5 6v-62h-3
q-201 0 -201 -145z" />
    <glyph glyph-name="Xi" unicode="&#x39e;" horiz-adv-x="1282" 
d="M1024 1205h-765q-93 0 -110.5 -16.5t-23.5 -153.5h-47l15 308h1096l15 -308h-49q-5 137 -23 153.5t-108 16.5zM1022 524h-49v100h-664v-100h-49v338h49v-99h664v99h49v-338zM256 138h771q93 0 111.5 19.5t26.5 171.5h49l-16 -329h-1115l-15 329h48q2 -56 7 -107.5
t18 -63.5q20 -20 115 -20z" />
    <glyph glyph-name="Omicron" unicode="&#x39f;" horiz-adv-x="1445" 
d="M722 -43q-280 0 -467 214t-187 498.5t186.5 502.5t468 218t468 -217.5t186.5 -503t-187.5 -499t-467.5 -213.5zM1175 696q0 438 -260 590q-92 54 -192 54t-191 -53q-262 -153 -262 -591q0 -469 265 -632q91 -56 185 -56t188 55q267 156 267 633z" />
    <glyph glyph-name="Pi" unicode="&#x3a0;" horiz-adv-x="1480" 
d="M1300 6h-361q-36 0 -107 -6v61h78q60 0 85 11q39 17 39 69v1141h-590v-1141q0 -26 6 -41q13 -32 90 -39q6 0 33 -0.5t76 0.5v-61q-71 6 -113 6h-360q-37 0 -108 -6v61h78q60 0 85 11q39 17 39 69v1062q0 26 -6 41q-13 32 -90 38h-106v62h1345v-62q-8 0 -29 0.5t-32 0.5
q-121 0 -137 -39q-6 -14 -6 -41v-1062q0 -26 6 -41q13 -32 90 -39q5 0 32 -0.5t76 0.5v-61q-71 6 -113 6z" />
    <glyph glyph-name="Rho" unicode="&#x3a1;" horiz-adv-x="1295" 
d="M1074 1249q154 -106 154 -268t-142 -262t-307 -100h-335v-473q0 -32 7 -48q17 -37 181 -37h17v-61q-72 6 -133 6h-326q-50 0 -122 -6v61l55 -1q122 0 140 38q7 15 7 48v1051q0 32 -7 48q-16 37 -158 37q-18 0 -37 -1v62h695q174 0 311 -94zM1024 977q0 161 -75.5 232.5
t-237.5 71.5h-186q-53 0 -69.5 -13t-16.5 -66v-532h272q313 0 313 307z" />
    <glyph glyph-name="uni03A2" unicode="&#x3a2;" horiz-adv-x="1234" 
d="M1152 -267h-1070v1698h1070v-1698zM1078 -193v1550h-922v-1550h922zM1070 1070l-333 279h81l252 -211v-68zM1070 770l-690 579h81l609 -511v-68zM1070 470l-906 760v68l906 -760v-68zM1070 170l-906 760v68l906 -760v-68zM1070 -130l-906 760v68l906 -760v-68zM859 -185
h-81l-614 515v68zM501 -185h-81l-256 215v68z" />
    <glyph glyph-name="Sigma" unicode="&#x3a3;" horiz-adv-x="1335" 
d="M106 0q-36 0 -36 22q0 9 18 32l470 596l-490 660q0 33 41 33h1103l54 -443h-47q-30 235 -137 313q-93 68 -338 68h-455l405 -532q13 -17 13 -26.5t-17 -31.5l-480 -608h529q244 0 342 69q114 81 138 314h47l-54 -466h-1106z" />
    <glyph glyph-name="Tau" unicode="&#x3a4;" horiz-adv-x="1413" 
d="M878 1282q-46 0 -65.5 -11.5t-19.5 -53.5v-1071q0 -25 10 -47q18 -38 243 -38h34v-61q-84 6 -154 6h-439q-71 0 -155 -6v61q9 0 35.5 -0.5t40.5 -0.5q184 0 202 39q8 17 8 47v1072q0 43 -29 56q-17 8 -66 8q-256 0 -321 -62.5t-86 -318.5h-48l36 442h1206l36 -442h-49
q-22 262 -88.5 321.5t-330.5 59.5z" />
    <glyph glyph-name="Upsilon" unicode="&#x3a5;" horiz-adv-x="1445" 
d="M1377 1068q0 -33 -31 -33q-23 0 -31 30q-4 24 -9 48q-16 49 -72.5 77.5t-112.5 28.5q-171 0 -252 -200q-59 -145 -59 -346v-529q0 -29 7 -44q19 -40 190 -40q26 0 55 1v-61q-76 6 -159 6h-362q-83 0 -159 -6v61l75 -1q147 0 170 41q8 14 8 42v530q0 201 -59 347
q-82 199 -253 199q-55 0 -108.5 -26.5t-70.5 -73.5q-6 -26 -14.5 -55t-31.5 -29q-30 0 -30 33q0 116 72 209t185 93q174 0 282 -159q84 -124 115 -319h2q30 194 115 319q108 159 280 159q113 0 185.5 -93t72.5 -209z" />
    <glyph glyph-name="Phi" unicode="&#x3a6;" horiz-adv-x="1394" 
d="M1025 1287l-82 2q-135 0 -157 -37q-14 -23 -14 -76v-81q215 -21 368 -118q186 -118 186 -304t-186 -303q-153 -97 -368 -117v-97q0 -39 7 -56q16 -40 202 -40q21 0 44 1v-61q-75 6 -154 6h-359q-80 0 -155 -6v61l81 -2q136 0 158 37q14 23 14 75v82q-210 21 -361 120
q-181 118 -181 300.5t181 300.5q152 99 361 121v99q0 37 -7 54q-16 39 -225 39h-21v62q75 -6 155 -6h359q79 0 154 6v-62zM1130 674q0 339 -358 376v-753q164 13 261 110t97 267zM610 1050q-347 -40 -347 -375.5t347 -375.5v751z" />
    <glyph glyph-name="Chi" unicode="&#x3a7;" horiz-adv-x="1518" 
d="M1450 0q-127 6 -299 6t-244 -6v61q128 5 128 59q0 10 -320 493l-281 -414q-19 -28 -19 -48q0 -43 38.5 -66t84.5 -24v-61q-74 6 -165 6t-305 -6v61q196 0 285 131l323 477l-362 547q-34 51 -99 64q-24 4 -81 4h-41v62q112 -6 292.5 -6t251.5 6v-62q-128 -5 -128 -58
q0 -13 268 -410l225 333q17 25 17 46q0 43 -37.5 65.5t-83.5 23.5v62q81 -6 163.5 -6t306.5 6v-62q-198 -2 -285 -128l-271 -395l416 -629q35 -53 99 -66q25 -5 85 -5h38v-61z" />
    <glyph glyph-name="Psi" unicode="&#x3a8;" horiz-adv-x="1441" 
d="M1048 1287l-63 2q-162 0 -182 -42q-8 -17 -8 -41v-890q263 63 281 475q5 114 15 162q23 101 84 127q35 15 116.5 15t81.5 -25q0 -14 -25 -22q-108 -34 -108 -220q0 -508 -445 -563v-125q0 -22 8 -40q18 -39 208 -39h37v-61q-74 6 -143 6h-382q-69 0 -143 -6v61l83 -2
q140 0 160 40q11 22 11 51v63q-1 40 -1 52q-402 52 -432 516q-9 132 -9 136q-13 93 -53 114l-46 15q-25 9 -25 24q0 22 35 22h87q106 0 146 -92q24 -57 30 -219.5t49 -267.5q62 -156 218 -197v890q0 25 -7 42q-16 39 -225 39h-21v62q74 -6 143 -6h382q69 0 143 6v-62z" />
    <glyph glyph-name="Omega" unicode="&#x3a9;" horiz-adv-x="1382" 
d="M923 0q-25 0 -31.5 7t-6.5 33q0 150 101 429t101 429q0 186 -107 317t-289 131t-289 -131t-107 -317q0 -150 101 -429t101 -429q0 -40 -39 -40h-326l-64 320h48q17 -115 35.5 -146t36 -38.5t58.5 -7.5h194q-27 111 -120 256q-144 223 -153 240q-76 141 -76 272
q0 221 194 364q177 130 406 130t405 -130q194 -143 194 -364q0 -131 -76 -272q-9 -18 -153 -240q-93 -145 -120 -256h195q41 0 58 7.5t35.5 38t35.5 146.5h49l-64 -320h-327z" />
    <glyph glyph-name="Iotadieresis" unicode="&#x3aa;" horiz-adv-x="736" 
d="M670 1284l-59 2q-75 0 -103 -9q-53 -18 -53 -76v-1057q0 -27 13.5 -52t91.5 -31h110v-61q-71 6 -117 6h-373q-41 0 -112 -6v61q8 0 27.5 -0.5t29.5 -0.5q128 0 147 36q9 17 9 49v1056q0 32 -9 49q-18 34 -153 34h-51v62q71 -6 115 -6h376q41 0 111 6v-62zM257 1574
q32 -32 32 -78.5t-32 -79t-78 -32.5t-79 33.5t-33 78t33.5 77.5t79 33t77.5 -32zM629 1574q32 -32 32 -78.5t-32 -79t-78 -32.5t-79 33.5t-33 78t33.5 77.5t79 33t77.5 -32z" />
    <glyph glyph-name="Upsilondieresis" unicode="&#x3ab;" horiz-adv-x="1445" 
d="M1377 1068q0 -33 -31 -33q-23 0 -31 30q-4 24 -9 48q-16 49 -72.5 77.5t-112.5 28.5q-171 0 -252 -200q-59 -145 -59 -346v-529q0 -29 7 -44q19 -40 190 -40q26 0 55 1v-61q-76 6 -159 6h-362q-83 0 -159 -6v61l75 -1q147 0 170 41q8 14 8 42v530q0 201 -59 347
q-82 199 -253 199q-55 0 -108.5 -26.5t-70.5 -73.5q-6 -26 -14.5 -55t-31.5 -29q-30 0 -30 33q0 116 72 209t185 93q174 0 282 -159q84 -124 115 -319h2q30 194 115 319q108 159 280 159q113 0 185.5 -93t72.5 -209zM629 1574q32 -32 32 -78.5t-32 -79t-78 -32.5t-79 33.5
t-33 78t33.5 77.5t79 33t77.5 -32zM1001 1574q32 -32 32 -78.5t-32 -79t-78 -32.5t-79 33.5t-33 78t33.5 77.5t79 33t77.5 -32z" />
    <glyph glyph-name="alphatonos" unicode="&#x3ac;" horiz-adv-x="1228" 
d="M1151 187q0 -84 -47.5 -143.5t-128.5 -59.5q-139 0 -165 167q-137 -175 -301 -175q-192 0 -324 144.5t-132 340t138 340.5t334 145q92 0 169.5 -54t117.5 -140l81 194h47v-788q0 -39 21.5 -73.5t58.5 -34.5q78 0 78 171l-2 86h55v-120zM799 291v301q0 112 -76 206.5
t-178.5 94.5t-176.5 -72q-138 -134 -138 -362q0 -152 66 -280q81 -155 219 -155q104 0 194 82t90 185zM748 1457q0 -20 -17 -48l-144 -237q-25 -41 -51 -41t-26 24q0 11 8 33l100 278q13 36 60 36q70 0 70 -45z" />
    <glyph glyph-name="epsilontonos" unicode="&#x3ad;" horiz-adv-x="883" 
d="M792 280q28 0 28 -28.5t-34 -86.5q-110 -189 -326 -189q-148 0 -260 61q-138 75 -138 211q0 99 74 161.5t179 86.5q-93 22 -154 84t-61 153q0 123 132 182q98 45 221 45t210 -28q123 -40 123 -122q0 -33 -24.5 -55.5t-60.5 -22.5t-67 47q-52 77 -61 86q-47 47 -126 47
q-202 0 -202 -194q0 -188 199 -188q22 0 63 11t63 11q86 0 86 -55.5t-87 -55.5q-21 0 -62.5 11t-62.5 11q-224 0 -224 -205q0 -228 255 -228q204 0 290 221q11 29 27 29zM628 1457q0 -20 -17 -48l-144 -237q-25 -41 -51 -41t-26 24q0 11 8 33l100 278q13 36 60 36
q70 0 70 -45z" />
    <glyph glyph-name="etatonos" unicode="&#x3ae;" horiz-adv-x="1098" 
d="M858 -81v757q0 237 -158 237q-129 0 -209 -100.5t-80 -232.5v-580h-149v778q0 39 -21 73.5t-58 34.5q-78 0 -78 -172q0 -8 2 -85h-55v120q0 84 47 143.5t130 59.5t128 -69q40 -59 40 -147q101 224 317 224q293 0 293 -317v-45q-1 -29 -1 -44v-659q0 -140 40 -323h-148
q-40 135 -40 347zM758 1457q0 -20 -17 -48l-144 -237q-25 -41 -51 -41t-26 24q0 11 8 33l100 278q13 36 60 36q70 0 70 -45z" />
    <glyph glyph-name="iotatonos" unicode="&#x3af;" horiz-adv-x="748" 
d="M695 266q0 -114 -48 -194q-58 -96 -164 -96q-133 0 -203 78t-70 212v473q0 86 -41 106q-20 11 -103 11h-14v67l299 23v-685q0 -231 148 -231q102 0 131 139q12 56 12 182v37h53v-122zM408 1457q0 -20 -17 -48l-144 -237q-25 -41 -51 -41t-26 24q0 11 8 33l100 278
q13 36 60 36q70 0 70 -45z" />
    <glyph glyph-name="upsilondieresistonos" unicode="&#x3b0;" horiz-adv-x="1103" 
d="M1051 496q0 -211 -106 -357q-119 -163 -322 -163q-178 0 -269.5 100.5t-91.5 280.5v421q0 39 -21 73.5t-58 34.5q-79 0 -79 -173q0 -6 3 -84h-55v120q0 84 47 143.5t132 59.5t132.5 -62.5t47.5 -153.5v-357q0 -355 223 -355q159 0 241 173q64 134 64 313q0 328 -233 410
l5 32q160 -18 250 -152.5t90 -303.5zM764 1561q0 -20 -17 -48l-144 -237q-25 -41 -51 -41t-26 24q0 11 8 33l100 278q13 36 60 36q70 0 70 -45zM854 1233q0 -42 -29.5 -72t-71 -30t-71 30.5t-29.5 71t30 70.5t71 30t70.5 -29t29.5 -71zM482 1233q0 -42 -29.5 -72t-71 -30
t-71.5 30.5t-30 71t30.5 70.5t71.5 30t70.5 -29t29.5 -71z" />
    <glyph glyph-name="alpha" unicode="&#x3b1;" horiz-adv-x="1228" 
d="M1151 187q0 -84 -47.5 -143.5t-128.5 -59.5q-139 0 -165 167q-137 -175 -301 -175q-192 0 -324 144.5t-132 340t138 340.5t334 145q92 0 169.5 -54t117.5 -140l81 194h47v-788q0 -39 21.5 -73.5t58.5 -34.5q78 0 78 171l-2 86h55v-120zM799 291v301q0 112 -76 206.5
t-178.5 94.5t-176.5 -72q-138 -134 -138 -362q0 -152 66 -280q81 -155 219 -155q104 0 194 82t90 185z" />
    <glyph glyph-name="beta" unicode="&#x3b2;" horiz-adv-x="951" 
d="M898 427q0 -200 -124.5 -325.5t-265 -125.5t-272.5 113q0 -22 0.5 -75t0.5 -79q0 -221 -37 -352h-148q37 173 37 311v1110q0 467 361 467q157 0 257.5 -88t100.5 -242q0 -183 -193 -308q283 -133 283 -406zM671 133q57 92 57 215.5t-46 258.5t-120 198q-56 -27 -98.5 -27
t-80.5 16.5t-38 42.5q0 47 87 47q54 0 131 -30q88 103 88 292q0 277 -211 277q-204 0 -204 -345v-845q0 -48 58 -119q74 -90 192 -90t185 109z" />
    <glyph glyph-name="gamma" unicode="&#x3b3;" horiz-adv-x="934" 
d="M884 847q0 -109 -133 -365l-201 -358q37 -229 37 -383t-78 -154q-82 0 -82 164t68 381q-44 204 -111 379q-107 280 -211 280q-76 0 -88 -155h-35v14q0 273 146 273q129 0 231 -307q18 -55 106 -423q147 307 174 509q13 97 25 133q27 88 82 88q70 0 70 -76z" />
    <glyph glyph-name="delta" unicode="&#x3b4;" horiz-adv-x="929" 
d="M716 821q160 -165 160 -356.5t-130.5 -340t-311 -148.5t-281.5 123t-101 305t120 309.5t304 154.5q-35 39 -132 116.5t-135 128.5q-56 77 -56 173.5t116 152.5q92 44 207 44t208 -54q113 -64 113 -170.5t-98 -106.5q-43 0 -71 28t-28 71q0 95 101 99q-80 78 -229 78
q-80 0 -140 -31q-74 -38 -74 -111q0 -102 160 -227q271 -210 298 -238zM730 399q0 187 -210 421q-153 -24 -236 -131.5t-83 -262.5t59 -262q73 -134 208.5 -134t205.5 125q56 101 56 244z" />
    <glyph glyph-name="epsilon" unicode="&#x3b5;" horiz-adv-x="883" 
d="M792 280q28 0 28 -28.5t-34 -86.5q-110 -189 -326 -189q-148 0 -260 61q-138 75 -138 211q0 99 74 161.5t179 86.5q-93 22 -154 84t-61 153q0 123 132 182q98 45 221 45t210 -28q123 -40 123 -122q0 -33 -24.5 -55.5t-60.5 -22.5t-67 47q-52 77 -61 86q-47 47 -126 47
q-202 0 -202 -194q0 -188 199 -188q22 0 63 11t63 11q86 0 86 -55.5t-87 -55.5q-21 0 -62.5 11t-62.5 11q-224 0 -224 -205q0 -228 255 -228q204 0 290 221q11 29 27 29z" />
    <glyph glyph-name="zeta" unicode="&#x3b6;" horiz-adv-x="835" 
d="M402 126l202 8q97 0 161 -67.5t64 -165.5q0 -147 -86.5 -243t-227.5 -96t-141 88q0 71 75 71q28 0 82.5 -14.5t82.5 -14.5q61 0 102 48.5t41 106.5t-40.5 100t-94.5 42l-185 -13q-385 0 -385 443q0 400 284 723h-5q-185 0 -185 148q0 118 174 167l16 -37
q-104 -45 -104 -123q0 -51 34.5 -83.5t85.5 -32.5q11 0 23 2q56 64 175.5 144.5t184.5 80.5q48 0 48 -38q0 -86 -148 -158q-108 -53 -225 -73q-145 -134 -222 -327.5t-77 -399.5q0 -153 68.5 -219.5t222.5 -66.5z" />
    <glyph glyph-name="eta" unicode="&#x3b7;" horiz-adv-x="1098" 
d="M858 -81v757q0 237 -158 237q-129 0 -209 -100.5t-80 -232.5v-580h-149v778q0 39 -21 73.5t-58 34.5q-78 0 -78 -172q0 -8 2 -85h-55v120q0 84 47 143.5t130 59.5t128 -69q40 -59 40 -147q101 224 317 224q293 0 293 -317v-45q-1 -29 -1 -44v-659q0 -140 40 -323h-148
q-40 135 -40 347z" />
    <glyph glyph-name="theta" unicode="&#x3b8;" horiz-adv-x="980" 
d="M836 1205q92 -217 92 -477.5t-94 -474.5q-121 -277 -343.5 -277t-344.5 277q-94 215 -94 475.5t91 476.5q120 284 346.5 284t346.5 -284zM768 765q0 211 -51 398q-75 272 -227 272t-227 -272q-51 -188 -51 -398h556zM768 709h-556q0 -212 51 -402q75 -277 227 -277
t227 276q51 191 51 403z" />
    <glyph glyph-name="iota" unicode="&#x3b9;" horiz-adv-x="748" 
d="M695 266q0 -114 -48 -194q-58 -96 -164 -96q-133 0 -203 78t-70 212v473q0 86 -41 106q-20 11 -103 11h-14v67l299 23v-685q0 -231 148 -231q102 0 131 139q12 56 12 182v37h53v-122z" />
    <glyph glyph-name="kappa" unicode="&#x3ba;" horiz-adv-x="1140" 
d="M1088 0h-241l-356 502l-137 -118v-384h-134v737q0 88 -45 109q-21 10 -107 10h-16v67l309 23v-488l380 330q155 135 233 135q100 0 100 -98q0 -38 -30.5 -66.5t-64 -28.5t-61 29t-54.5 29q-45 0 -266 -193q2 -20 10 -31l271 -384q47 -67 88.5 -90.5t120.5 -23.5v-66z" />
    <glyph glyph-name="lambda" unicode="&#x3bb;" horiz-adv-x="1043" 
d="M990 259q0 -283 -151.5 -283t-241.5 325l-108 392l-287 -693h-150l377 916l-68 249q-54 188 -181 188q-80 0 -92 -161h-36v15q0 283 152 283t241 -325l237 -864q52 -188 181 -188q79 0 92 161h35v-15z" />
    <glyph glyph-name="mu" unicode="&#x3bc;" horiz-adv-x="1120" 
d="M1043 187q0 -84 -47.5 -143.5t-130 -59.5t-125 64.5t-42.5 152.5q-101 -225 -317 -225q-83 0 -144 25v-66q0 -221 -37 -352h-148q37 173 37 311v1029h147v-663q0 -237 159 -237q129 0 209 101t80 233v566h148v-765q0 -39 21.5 -73.5t58.5 -34.5q78 0 78 171l-2 86h55
v-120z" />
    <glyph glyph-name="nu" unicode="&#x3bd;" horiz-adv-x="1031" 
d="M979 871q0 -93 -83 -247l-327 -607q-22 -41 -41 -41q-25 0 -40 41l-234 640q-48 131 -86 152q-25 14 -116 14v49q83 1 195 88h30q55 -105 97 -221l208 -573l199 365q41 75 41 117.5t-16.5 110.5t-16.5 103q0 98 103 98q36 0 61.5 -26.5t25.5 -62.5z" />
    <glyph glyph-name="xi" unicode="&#x3be;" horiz-adv-x="936" 
d="M420 123l262 12q106 0 172 -61.5t66 -166.5q0 -138 -86.5 -242.5t-221.5 -104.5q-47 0 -96.5 23.5t-49.5 65.5q0 25 22.5 46t48.5 21t78.5 -15t79.5 -15q75 0 117.5 45.5t42.5 109.5t-38 105.5t-91 41.5l-224 -12q-192 0 -312 84q-138 97 -138 281q0 263 252 437
q-116 85 -116 189t97 208q-156 36 -156 151.5t175 123.5v-33q-104 -13 -104 -89q0 -96 129 -105q202 179 327 179q44 0 44 -44q0 -82 -135 -132q-102 -38 -206 -41q-111 -109 -111 -209.5t122 -169.5q62 36 161 62t149.5 26t82.5 -14.5t32 -38.5q0 -49 -96 -74
q-66 -17 -143 -17t-182 17q-256 -184 -256 -394q0 -124 86.5 -187t215.5 -63z" />
    <glyph glyph-name="omicron" unicode="&#x3bf;" horiz-adv-x="998" 
d="M945 481.5q0 -201.5 -127.5 -353.5t-324.5 -152t-319 143.5t-122 341t126.5 348.5t321 151t320 -138.5t125.5 -340zM782 406q0 187 -65 326q-84 180 -250 180q-135 0 -200 -121q-52 -96 -52 -262.5t67 -311.5q87 -187 251 -187q249 0 249 376z" />
    <glyph glyph-name="pi" unicode="&#x3c0;" horiz-adv-x="1134" 
d="M1084 823h-267v-162q0 -366 108 -563q21 -38 21 -53q0 -66 -80.5 -66t-117.5 197q-24 127 -24 272v375h-228l-80 -704q-16 -140 -90.5 -140t-74.5 62q0 11 10 41q102 311 168 741h-191q-57 0 -118 -41q-55 -36 -55 -40q0 -1 1 -1q-16 0 -16 16q0 39 63.5 102.5
t164.5 63.5h806v-100z" />
    <glyph glyph-name="rho" unicode="&#x3c1;" horiz-adv-x="990" 
d="M184 818q107 142 305 142t323.5 -138.5t125.5 -340t-127.5 -353.5t-329.5 -152q-145 0 -245 113q0 -23 0.5 -79.5t0.5 -84.5q0 -214 -36 -342h-149q37 173 37 311v589q0 209 95 335zM775 406q0 187 -65 326q-84 180 -250 180q-108 0 -166 -84.5t-58 -197.5v-344
q0 -110 89 -183t201 -73q249 0 249 376z" />
    <glyph glyph-name="sigma1" unicode="&#x3c2;" horiz-adv-x="905" 
d="M617 -14l-105 -10q-194 0 -326.5 144.5t-132.5 342.5t132 347.5t330 149.5q99 0 207 -48q131 -58 131 -143q0 -35 -23 -58t-64 -23t-68 56q-48 99 -52 105q-43 56 -128 56q-60 0 -120 -34q-168 -95 -168 -405q0 -109 58 -216q68 -126 168 -126l120 6q106 0 169.5 -62.5
t63.5 -169.5q0 -135 -91.5 -234.5t-228 -99.5t-136.5 84q0 22 22 44.5t47.5 22.5t78.5 -19t82 -19q67 0 112 51t45 118q0 140 -123 140z" />
    <glyph glyph-name="sigma" unicode="&#x3c3;" horiz-adv-x="1087" 
d="M1037 823h-282q155 -134 155 -344t-122.5 -356.5t-312.5 -146.5t-307.5 138.5t-117.5 328t121.5 335t309.5 145.5h556v-100zM753 390q0 307 -151 433h-150q-125 0 -185 -83.5t-60 -213.5q0 -179 65 -318q83 -180 241 -180q240 0 240 362z" />
    <glyph glyph-name="tau" unicode="&#x3c4;" horiz-adv-x="936" 
d="M888 255q0 -109 -51.5 -194t-153.5 -85q-128 0 -196.5 75t-68.5 204v568h-180q-57 0 -118 -41q-55 -36 -55 -40q0 -1 1 -1q-16 0 -16 16q0 39 63.5 102.5t164.5 63.5h608v-100h-327v-572q0 -223 139 -223q98 0 127 134q11 55 11 173v38h52v-118z" />
    <glyph glyph-name="upsilon" unicode="&#x3c5;" horiz-adv-x="1103" 
d="M1051 496q0 -211 -106 -357q-119 -163 -322 -163q-178 0 -269.5 100.5t-91.5 280.5v421q0 39 -21 73.5t-58 34.5q-79 0 -79 -173q0 -6 3 -84h-55v120q0 84 47 143.5t132 59.5t132.5 -62.5t47.5 -153.5v-357q0 -355 223 -355q159 0 241 173q64 134 64 313q0 328 -233 410
l5 32q160 -18 250 -152.5t90 -303.5z" />
    <glyph glyph-name="phi" unicode="&#x3c6;" horiz-adv-x="1201" 
d="M642 959q225 -13 366 -151.5t141 -326t-138.5 -337t-368.5 -166.5v-390h-83v389q-228 10 -367.5 154.5t-139.5 329t140 334t367 164.5v164h83v-164zM905 165q70 98 79 259v32q0 142 -68 265q-93 167 -274 188v-878q174 10 263 134zM559 33v878q-180 -12 -270 -150
q-64 -97 -71 -244q-1 -13 -1 -26q0 -133 71 -262q94 -172 271 -196z" />
    <glyph glyph-name="chi" unicode="&#x3c7;" horiz-adv-x="952" 
d="M900 -145q0 -279 -149 -279q-157 0 -226 320l-53 245l-274 -541h-147l380 750l-62 291q-17 74 -63.5 129.5t-114.5 55.5q-78 0 -90 -159h-35v15q0 278 149 278q157 0 226 -319l41 -189l254 502h147l-360 -711l75 -347q17 -74 63 -129.5t114 -55.5q78 0 90 158h35v-14z
" />
    <glyph glyph-name="psi" unicode="&#x3c8;" horiz-adv-x="1254" 
d="M1201 656q0 -244 -99 -438q-122 -241 -343 -241v-389h-83v389q-414 0 -414 386v415q0 39 -21 73.5t-58 34.5q-79 0 -79 -173q0 -7 3 -84h-55v120q0 84 47 143.5t132 59.5t132.5 -62.5t47.5 -153.5v-351q0 -186 39 -256q55 -100 226 -100v894h83v-894q151 0 248 146
q86 130 86 289q0 70 -42.5 200.5t-42.5 199.5q0 96 67 96q85 0 112 -118q14 -59 14 -186z" />
    <glyph glyph-name="omega" unicode="&#x3c9;" horiz-adv-x="1328" 
d="M1276 430q0 -173 -79 -302q-93 -152 -255 -152q-185 0 -278 219q-93 -219 -278 -219q-162 0 -255 152q-79 129 -79 302q0 245 124.5 386t365.5 144v-48q-327 -10 -327 -470q0 -412 202 -412q135 0 224 241q-67 140 -67 291q0 219 90 219t90 -219q0 -151 -67 -291
q89 -241 224 -241q202 0 202 412q0 460 -327 470v48q241 -3 365.5 -144.5t124.5 -385.5z" />
    <glyph glyph-name="iotadieresis" unicode="&#x3ca;" horiz-adv-x="748" 
d="M695 266q0 -114 -48 -194q-58 -96 -164 -96q-133 0 -203 78t-70 212v473q0 86 -41 106q-20 11 -103 11h-14v67l299 23v-685q0 -231 148 -231q102 0 131 139q12 56 12 182v37h53v-122zM167 1318q32 -32 32 -78.5t-32 -79t-78 -32.5t-79 33.5t-33 78t33.5 77.5t79 33
t77.5 -32zM539 1318q32 -32 32 -78.5t-32 -79t-78 -32.5t-79 33.5t-33 78t33.5 77.5t79 33t77.5 -32z" />
    <glyph glyph-name="upsilondieresis" unicode="&#x3cb;" horiz-adv-x="1103" 
d="M1051 496q0 -211 -106 -357q-119 -163 -322 -163q-178 0 -269.5 100.5t-91.5 280.5v421q0 39 -21 73.5t-58 34.5q-79 0 -79 -173q0 -6 3 -84h-55v120q0 84 47 143.5t132 59.5t132.5 -62.5t47.5 -153.5v-357q0 -355 223 -355q159 0 241 173q64 134 64 313q0 328 -233 410
l5 32q160 -18 250 -152.5t90 -303.5zM467 1318q32 -32 32 -78.5t-32 -79t-78 -32.5t-79 33.5t-33 78t33.5 77.5t79 33t77.5 -32zM839 1318q32 -32 32 -78.5t-32 -79t-78 -32.5t-79 33.5t-33 78t33.5 77.5t79 33t77.5 -32z" />
    <glyph glyph-name="omicrontonos" unicode="&#x3cc;" horiz-adv-x="998" 
d="M945 481.5q0 -201.5 -127.5 -353.5t-324.5 -152t-319 143.5t-122 341t126.5 348.5t321 151t320 -138.5t125.5 -340zM782 406q0 187 -65 326q-84 180 -250 180q-135 0 -200 -121q-52 -96 -52 -262.5t67 -311.5q87 -187 251 -187q249 0 249 376zM638 1457q0 -20 -17 -48
l-144 -237q-25 -41 -51 -41t-26 24q0 11 8 33l100 278q13 36 60 36q70 0 70 -45z" />
    <glyph glyph-name="upsilontonos" unicode="&#x3cd;" horiz-adv-x="1103" 
d="M1051 496q0 -211 -106 -357q-119 -163 -322 -163q-178 0 -269.5 100.5t-91.5 280.5v421q0 39 -21 73.5t-58 34.5q-79 0 -79 -173q0 -6 3 -84h-55v120q0 84 47 143.5t132 59.5t132.5 -62.5t47.5 -153.5v-357q0 -355 223 -355q159 0 241 173q64 134 64 313q0 328 -233 410
l5 32q160 -18 250 -152.5t90 -303.5zM728 1457q0 -20 -17 -48l-144 -237q-25 -41 -51 -41t-26 24q0 11 8 33l100 278q13 36 60 36q70 0 70 -45z" />
    <glyph glyph-name="omegatonos" unicode="&#x3ce;" horiz-adv-x="1328" 
d="M1276 430q0 -173 -79 -302q-93 -152 -255 -152q-185 0 -278 219q-93 -219 -278 -219q-162 0 -255 152q-79 129 -79 302q0 245 124.5 386t365.5 144v-48q-327 -10 -327 -470q0 -412 202 -412q135 0 224 241q-67 140 -67 291q0 219 90 219t90 -219q0 -151 -67 -291
q89 -241 224 -241q202 0 202 412q0 460 -327 470v48q241 -3 365.5 -144.5t124.5 -385.5zM818 1457q0 -20 -17 -48l-144 -237q-25 -41 -51 -41t-26 24q0 11 8 33l100 278q13 36 60 36q70 0 70 -45z" />
    <glyph glyph-name="uni03CF" unicode="&#x3cf;" horiz-adv-x="1519" 
d="M649 1284l-57 2q-126 0 -142 -40q-6 -15 -6 -44v-636l618 588q36 34 36 67q0 61 -91 63v62q69 -6 217.5 -6t201.5 6v-62q-159 -2 -281 -118l-306 -291l391 -478q107 -131 107 -322t-130.5 -340t-330.5 -149q-121 0 -215 54q-113 64 -113 170t97 106q42 0 70.5 -28
t28.5 -70q0 -94 -100 -99q79 -78 229 -78q59 0 120 34q182 102 182 353q0 180 -103 308l-347 430l-281 -268v-359q0 -28 9 -45q17 -33 186 -33h10v-61q-71 6 -120 6h-347q-43 0 -114 -6v61q8 0 26.5 -0.5t28.5 -0.5q125 0 141 40q6 15 6 44v1066q0 27 -7 41q-16 33 -176 33
h-19v62q70 -6 119 -6h342q50 0 120 6v-62z" />
    <glyph glyph-name="uni03D0" unicode="&#x3d0;" horiz-adv-x="1007" 
d="M822 736.5q125 -125.5 125 -307.5t-127 -317.5t-312 -135.5q-217 0 -340 185q-95 143 -95 381.5t77 446.5q91 247 266 361q129 84 259 84q78 0 137 -38.5t59 -113.5q0 -169 -247 -258q-180 -65 -390 -66q-51 -132 -56 -279q130 183 342 183q177 0 302 -125.5zM759 1263
q0 85 -108 85q-131 0 -235 -92t-156 -225q158 2 300 48q199 64 199 184zM785 367q0 168 -64 292q-80 157 -232 157q-122 0 -186 -108q-52 -88 -52 -237t66 -279q83 -162 234 -162q234 0 234 337z" />
    <glyph glyph-name="theta1" unicode="&#x3d1;" horiz-adv-x="1206" 
d="M1154 706q0 -17 -15 -17q-40 0 -103 19q0 -245 -85 -456q-111 -273 -315 -273q-246 0 -325 172q-49 108 -49 387q0 39 -21 73.5t-58 34.5q-79 0 -79 -165v-8h-52v36q0 84 47.5 143.5t132 59.5t129.5 -62t45 -154v-44q0 -431 230 -431q147 0 206 260q35 152 35 362v23v81
q-184 55 -301 156q-146 125 -146 292q0 114 53 205q63 108 169 108q201 0 306 -293q74 -209 78 -464q118 -16 118 -45zM668 1445q-82 0 -131 -96q-40 -79 -40 -170q0 -264 379 -382q-1 209 -33 374q-53 274 -175 274z" />
    <glyph glyph-name="Upsilon1" unicode="&#x3d2;" horiz-adv-x="1566" 
d="M1499 1284q-173 0 -252 -128l-381 -619v-388q0 -34 10 -53q15 -29 90 -35h104v-61q-73 6 -127 6h-320q-55 0 -128 -6v61q8 0 25.5 -0.5t27.5 -0.5q124 0 142 36q7 14 7 43v398l-413 675q-34 56 -95 68q-21 4 -121 4v62q126 -6 299.5 -6t246.5 6v-62h-24q-112 0 -112 -48
q0 -14 13 -35l356 -581l325 529q21 34 21 58q0 77 -113 77v62q155 -6 240.5 -6t178.5 6v-62z" />
    <glyph glyph-name="uni03D3" unicode="&#x3d3;" horiz-adv-x="1979" 
d="M1912 1284q-173 0 -252 -128l-381 -619v-388q0 -34 10 -53q15 -29 90 -35h104v-61q-73 6 -127 6h-320q-55 0 -128 -6v61q8 0 25.5 -0.5t27.5 -0.5q124 0 142 36q7 14 7 43v398l-413 675q-34 56 -95 68q-21 4 -121 4v62q126 -6 299.5 -6t246.5 6v-62h-24q-112 0 -112 -48
q0 -14 13 -35l356 -581l325 529q21 34 21 58q0 77 -113 77v62q155 -6 240.5 -6t178.5 6v-62zM271 1324q0 -20 -17 -48l-144 -237q-25 -41 -51 -41t-26 24q0 11 8 33l100 278q13 36 60 36q70 0 70 -45z" />
    <glyph glyph-name="uni03D4" unicode="&#x3d4;" horiz-adv-x="1566" 
d="M1499 1284q-173 0 -252 -128l-381 -619v-388q0 -34 10 -53q15 -29 90 -35h104v-61q-73 6 -127 6h-320q-55 0 -128 -6v61q8 0 25.5 -0.5t27.5 -0.5q124 0 142 36q7 14 7 43v398l-413 675q-34 56 -95 68q-21 4 -121 4v62q126 -6 299.5 -6t246.5 6v-62h-24q-112 0 -112 -48
q0 -14 13 -35l356 -581l325 529q21 34 21 58q0 77 -113 77v62q155 -6 240.5 -6t178.5 6v-62zM717 1574q32 -32 32 -78.5t-32 -79t-78 -32.5t-79 33.5t-33 78t33.5 77.5t79 33t77.5 -32zM1089 1574q32 -32 32 -78.5t-32 -79t-78 -32.5t-79 33.5t-33 78t33.5 77.5t79 33
t77.5 -32z" />
    <glyph glyph-name="phi1" unicode="&#x3d5;" horiz-adv-x="1201" 
d="M1021.5 791.5q127.5 -138.5 127.5 -318t-138.5 -329t-367.5 -166.5v-390h-84v389q-228 10 -367.5 154.5t-139.5 329.5q0 160 108.5 298t291.5 183l-3 -53q-120 -44 -181 -164q-44 -87 -50 -191q-1 -15 -1 -30q0 -146 70 -275q95 -172 272 -196v590q0 149 21 206
q38 101 162 101q152 0 279.5 -138.5zM724 859q-81 0 -81 -193v-635q174 10 263 134q72 100 78 256v24q0 142 -60 263q-75 151 -200 151z" />
    <glyph glyph-name="omega1" unicode="&#x3d6;" horiz-adv-x="1666" 
d="M1614 823h-246q158 -113 158 -383q0 -174 -79 -307q-93 -157 -255 -157q-185 0 -278 219q-93 -219 -278 -219q-162 0 -255 157q-79 133 -79 307q0 270 158 383h-222q-57 0 -118 -41q-55 -36 -55 -40q0 -1 1 -1q-16 0 -16 16q0 39 63.5 102.5t164.5 63.5h1336v-100z
M1363 462q0 274 -135 361h-628q-135 -87 -135 -361q0 -432 202 -432q135 0 224 241q-67 140 -67 261q0 199 90 199t90 -199q0 -121 -67 -261q89 -241 224 -241q202 0 202 432z" />
    <glyph glyph-name="uni03D7" unicode="&#x3d7;" horiz-adv-x="1028" 
d="M976 259q0 -202 -65 -370q-83 -218 -243 -259q-41 -11 -112 -11q-14 0 -28 1h-62q-43 0 -63 -2q-87 -10 -139 -60h-44q21 142 154 177l264 43q159 44 225 203q-18 -5 -39 -5q-105 0 -150 221q-26 130 -28 307l-293 -235q-8 -293 -123 -293q-64 0 -64 96q0 206 188 352
q-5 124 -38 236q-49 163 -136 163q-80 0 -92 -161h-36v15q0 283 152 283q108 0 152 -213q26 -127 26 -300l288 232q15 281 122 281q46 0 60 -37q8 -20 8 -76q0 -171 -187 -321q6 -129 40 -243q50 -170 135 -170q80 0 92 161h36v-15z" />
    <glyph glyph-name="uni03D8" unicode="&#x3d8;" horiz-adv-x="1445" 
d="M672 79q-259 19 -431.5 210t-172.5 447.5t188 455t466.5 198.5t466.5 -198t188 -455t-172 -448t-432 -210v-74q0 -73 25 -183.5t25 -150t-28 -76.5t-73.5 -37t-70.5 43t-25 86.5t23 147.5t23 194v50zM1175 756q0 403 -266 538q-90 46 -186.5 46t-184.5 -45
q-268 -135 -268 -539q0 -436 273 -581q88 -47 177 -47t181 47q144 73 215 246q59 145 59 335z" />
    <glyph glyph-name="uni03D9" unicode="&#x3d9;" horiz-adv-x="1054" 
d="M863 824.5q139 -135.5 139 -310t-125 -298t-308 -138.5v-93q0 -88 30 -192t30 -139t-28.5 -65.5t-73 -30.5t-70 36t-25.5 75.5t27.5 143.5t27.5 196v68q-183 14 -308.5 139t-125.5 299.5t138.5 309.5t335.5 135t336 -135.5zM773 261q50 81 50 268.5t-59 267.5
q-83 114 -242 114t-238 -118q-54 -78 -54 -269t58 -275q83 -119 244 -119t241 131z" />
    <glyph glyph-name="uni03DA" unicode="&#x3da;" horiz-adv-x="1149" 
d="M1128 1370q0 -110 -109 -146q-59 -19 -200 -19h-357q-161 0 -270 -164q-98 -145 -98 -314q0 -207 144 -317q130 -101 344 -101q59 0 90 -39t31 -91v-174q0 -73 25 -183.5t25 -150t-28 -76.5t-73.5 -37t-70.5 43t-25 86.5t23 147.5t23 179t-10 100q-16 41 -66 46
q-232 23 -367 178t-135 389t116 412q133 204 345 204h405q125 0 236 75q2 -23 2 -48z" />
    <glyph glyph-name="uni03DB" unicode="&#x3db;" horiz-adv-x="1264" 
d="M601 -10l-164 -14q-174 0 -278 124.5t-104 301.5q0 240 166 380.5t410 140.5h600v-119h-592q-329 0 -451 -242q-40 -79 -40 -166q0 -120 73.5 -193.5t193.5 -73.5l163 7q99 0 162.5 -69t63.5 -169q0 -134 -92.5 -234t-228.5 -100t-136 83q0 23 22 45.5t48 22.5t79 -18.5
t82 -18.5q66 0 111 50.5t45 117.5q0 144 -133 144z" />
    <glyph glyph-name="uni03DC" unicode="&#x3dc;" horiz-adv-x="1216" 
d="M744 1281h-214q-51 0 -68.5 -13t-17.5 -66v-279h440l44 -350h-50q-25 155 -96 221.5t-248 66.5h-90v-724q0 -22 8 -39q17 -37 223 -37h22v-61q-74 6 -120 6h-382q-55 0 -127 -6v61q8 0 26 -0.5t28 -0.5q124 0 141 38q7 15 7 48v1053q0 31 -7 47q-15 35 -170 35h-25v62
h1026l55 -442h-49q-24 212 -82 285q-74 95 -274 95z" />
    <glyph glyph-name="uni03DD" unicode="&#x3dd;" horiz-adv-x="924" 
d="M891 804h-412q-145 0 -205 -46t-60 -141q0 -59 22 -154h381v-119h-381v-419q0 -214 -36 -342h-148q37 173 37 311v552q0 209 95 335q107 142 309 142h398v-119z" />
    <glyph glyph-name="uni03DE" unicode="&#x3de;" horiz-adv-x="910" 
d="M874.5 781.5q29.5 -31.5 29.5 -85t-11 -85.5l-316 -913q-48 -140 -119 -140q-86 0 -86 115q0 49 36 114l63 105q170 327 356 755h-666q-29 0 -50 21t-21 46t4 38l152 506q-6 -1 -10 -1q-93 0 -93 91q0 37 28 65.5t65.5 28.5t68 -27.5t30.5 -68.5t-15 -92l-130 -441h607
q48 0 77.5 -31.5z" />
    <glyph glyph-name="uni03DF" unicode="&#x3df;" horiz-adv-x="815" 
d="M771 465q0 -21 -21 -80l-245 -694q-47 -133 -116 -133q-87 0 -87 103q0 58 99 221q156 257 295 539h-557q-69 0 -69 70q0 15 4 23l209 418q-7 -1 -10 -1q-92 0 -92 89q0 36 28 64.5t64.5 28.5t63 -28t26.5 -73.5t-19 -83.5l-181 -364h493q115 0 115 -99z" />
    <glyph glyph-name="uni03E0" unicode="&#x3e0;" horiz-adv-x="1474" 
d="M1063 6q-110 0 -182 -6v61h6q152 0 152 54q0 10 -163 462l-140 -371q-9 -24 -9 -42q0 -51 44 -76.5t100 -26.5v-61q-182 6 -234.5 6t-152.5 -6v61h2q133 0 183 136l173 472l-166 456l-346 -919q-9 -24 -9 -42q0 -51 47.5 -76.5t104.5 -26.5v-61q-183 6 -244 6t-161 -6v61
h2q143 0 193 136l430 1172q15 42 45 42t45 -42l444 -1223q6 -20 25 -56q25 -29 135 -29h21v-61q-235 6 -345 6z" />
    <glyph glyph-name="uni03E1" unicode="&#x3e1;" horiz-adv-x="1238" 
d="M1174 175q0 -158 -20 -189q-4 -7 -16 -7q-22 0 -22 57q0 205 -119 393q-166 -188 -235 -383q-26 -74 -67 -74q-37 0 -61.5 24.5t-24.5 61.5q0 136 325 459q-58 72 -134 141q-28 -36 -54 -65l-481 -543q-69 -78 -120 -78q-29 0 -55 23t-26 53.5t46 65.5q313 235 636 590
q-225 180 -504 180q-32 0 -32 23q0 11 7 16q31 20 188 20q338 0 553.5 -215t215.5 -553z" />
    <glyph glyph-name="uni03E2" unicode="&#x3e2;" horiz-adv-x="1686" 
d="M1026 -368l-212 8q-165 0 -263 -82h-44q16 123 116 170q62 29 208 41t207 19q291 33 408 304q-121 -135 -303 -135q-236 0 -296 247h-8q-60 -247 -295.5 -247t-366.5 222q-109 186 -109 438q0 345 161 546q174 218 511 227v-43q-470 -25 -470 -712q0 -626 295 -626
q94 0 156.5 99t62.5 205t-23 210.5t-23 122.5q0 125 105 125t105 -125q0 -18 -23 -122.5t-23 -210.5t62.5 -205t156.5 -99q295 0 295 626q0 687 -470 712v43q337 -9 511 -227q161 -201 161 -546q0 -306 -103 -574q-131 -344 -375 -401q-43 -10 -114 -10z" />
    <glyph glyph-name="uni03E3" unicode="&#x3e3;" horiz-adv-x="1294" 
d="M1241 430q0 -723 -318 -800q-42 -10 -116 -10h-26q-27 1 -49 1q-55 0 -82 -4q-80 -11 -131 -59h-44q21 151 178 183l294 56q166 72 209 321q-92 -142 -249 -142q-224 0 -256 267h-8q-32 -267 -256 -267q-162 0 -255 152q-79 129 -79 302q0 244 124.5 385.5t365.5 144.5
v-48q-327 -10 -327 -470q0 -169 25 -257q44 -155 169 -155q99 0 149 102q39 79 39 191.5t-23 219.5t-23 122q0 116 95 116t95 -116q0 -15 -23 -122t-23 -219.5t39 -191.5q50 -102 149 -102q125 0 169 155q25 88 25 257q0 460 -327 470v48q242 -3 366 -144t124 -386z" />
    <glyph glyph-name="uni03E4" unicode="&#x3e4;" horiz-adv-x="1567" 
d="M1500 1284l-75 2q-140 0 -140 -85v-1057q0 -27 11 -48q19 -35 186 -35h18v-61q-71 6 -117 6h-373q-41 0 -112 -6v61q8 0 29 -0.5t32 -0.5q124 0 143 36q9 17 9 49v586q-43 -88 -119 -157q-185 -168 -420 -168q-196 0 -357.5 145.5t-161.5 343t132 346.5t330 149
q121 0 215 -54q113 -64 113 -170t-97 -106q-42 0 -70.5 28t-28.5 70q0 94 100 99q-79 78 -229 78q-60 0 -120 -34q-168 -95 -168 -405q0 -161 89 -291q99 -145 253 -145q220 0 392 164q147 140 147 358v219q0 32 -9 49q-15 28 -93 34h-111v62q70 -6 115 -6h376q42 0 111 6
v-62z" />
    <glyph glyph-name="uni03E5" unicode="&#x3e5;" horiz-adv-x="1204" 
d="M1151 0q-193 6 -236 6t-236 -6v66l44 -1q66 0 89 13q33 18 33 79v307q-27 -44 -72 -83q-135 -119 -307 -119t-292.5 97t-120.5 257t107 252t264 92q89 0 159 -39q85 -47 85 -126t-78.5 -79t-78.5 75q0 55 61 75q-60 39 -155.5 39t-151 -83.5t-55.5 -201t67.5 -211.5
t187.5 -94q154 0 267 102.5t113 254.5v94q0 61 -33 79q-23 13 -89 13l-44 -1v66q193 -6 236 -6t236 6v-66l-44 1q-66 0 -89 -13q-33 -18 -33 -79v-609q0 -61 33 -79q23 -13 89 -13l44 1v-66z" />
    <glyph glyph-name="uni03E6" unicode="&#x3e6;" horiz-adv-x="1533" 
d="M1465 369q0 -253 -114 -482q-140 -278 -367 -278q-84 0 -246 43t-246 43q-173 0 -206 -137h-68q33 136 141 189q82 40 239 40q64 0 188 -32.5t188 -32.5q154 0 233 242q56 173 56 371q0 278 -98 486q-127 269 -373 269q-197 0 -316 -170q-32 -46 -32 -72v-707
q0 -31 8 -45q20 -36 146 -36q24 0 51 1v-61q-68 6 -115 6h-358q-42 0 -108 -6v61q42 -1 62 -1q110 0 133 36q7 11 7 41v1068q0 32 -7 45q-19 35 -157 35q-18 0 -38 -1v62q66 -6 112 -6h354q48 0 115 6v-62q-42 2 -61 2q-114 0 -136 -36q-8 -13 -8 -45v-175q157 110 348 110
q320 0 504 -231q169 -212 169 -540z" />
    <glyph glyph-name="uni03E7" unicode="&#x3e7;" horiz-adv-x="1183" 
d="M1131 446q0 -294 -220 -421q-85 -49 -174 -49q-227 0 -402 286q-43 70 -100 70t-57 -64q0 -41 32 -104l-46 -26q-34 66 -34 127t46 111t114 50q113 0 206 -155q53 -88 136 -152t177 -64t149 67.5t55 166.5q0 143 -79.5 308t-189.5 289q-190 -168 -342 -168
q-204 0 -317 200q-33 58 -33 114q0 116 98.5 183.5t219.5 67.5q239 0 481 -223q54 73 84 73q12 0 12 -14q0 -30 -65 -88q249 -247 249 -585zM271 1201q-73 0 -119.5 -46.5t-46.5 -119.5q0 -111 101.5 -189t216.5 -78q135 0 292 150q-256 283 -444 283z" />
    <glyph glyph-name="uni03E8" unicode="&#x3e8;" horiz-adv-x="1017" 
d="M950 420q0 -189 -134.5 -326t-312.5 -137t-306.5 121.5t-128.5 288.5q0 131 69.5 231t191.5 150l195 66q102 35 156 84q72 67 72 175.5t-74.5 185t-183.5 76.5q-160 0 -245 -99q109 0 109 -100q0 -42 -29.5 -69.5t-71.5 -27.5q-96 0 -96 110.5t120 180.5q102 60 222 60
q159 0 270 -111.5t111 -270.5q0 -114 -61 -207t-165 -142q-48 -23 -142.5 -52t-111.5 -35q-108 -38 -156 -112t-48 -163q0 -114 97.5 -196.5t210 -82.5t204.5 60t143 159q30 58 48 177q5 32 24 32q23 0 23 -26z" />
    <glyph glyph-name="uni03E9" unicode="&#x3e9;" horiz-adv-x="928" 
d="M752 832q124 -128 124 -301.5t-160 -332.5q-37 -37 -298 -238q-160 -123 -160 -200.5t74 -115.5q60 -31 140 -31q148 0 229 78q-43 1 -72 29t-29 70.5t28 70.5t71 28q98 0 98 -106.5t-112 -170.5q-94 -54 -209 -54t-208 44q-115 56 -115 153q0 113 120 224l203 174
q-178 26 -301 141t-123 285.5t114.5 275.5t288 105t297.5 -128zM662 376q68 106 68 224t-70 212t-201.5 94t-199.5 -110q-58 -91 -58 -236t86 -240.5t233 -118.5q104 114 142 175z" />
    <glyph glyph-name="uni03EA" unicode="&#x3ea;" horiz-adv-x="1479" 
d="M1091 1390q122 0 193.5 -78.5t71.5 -188.5t-33 -110q-29 0 -34 26v49q0 66 -63.5 129t-129.5 63q-168 0 -293 -209q434 -1027 434 -1049t-28 -22h-905q-24 0 -24 22q0 13 10 37l383 911q-61 184 -86 233q-74 144 -177 144q-145 0 -217 -114h6q119 0 119 -110
q0 -47 -31 -78.5t-78.5 -31.5t-78.5 32.5t-31 81.5q0 117 97 190t222.5 73t206.5 -57t141 -179q145 236 325 236zM1010 149l-302 726l-306 -726h608z" />
    <glyph glyph-name="uni03EB" unicode="&#x3eb;" horiz-adv-x="1004" 
d="M894.5 906q56.5 -54 56.5 -130t-37.5 -76t-37.5 54q0 135 -119 135q-87 0 -187 -158q298 -688 298 -703q0 -28 -33 -28h-625q-31 0 -31 28q0 12 271 637q-39 118 -56 152q-48 96 -111 96q-93 0 -122 -50q75 -10 75 -91q0 -39 -26.5 -65.5t-66 -26.5t-65 27t-25.5 67
q0 85 72.5 135.5t160.5 50.5q162 0 244 -145q99 145 223 145q85 0 141.5 -54zM677 127l-188 439l-190 -439h378z" />
    <glyph glyph-name="uni03EC" unicode="&#x3ec;" horiz-adv-x="1695" 
d="M1628 1370q0 -110 -135 -146q-71 -19 -215.5 -19t-309.5 67.5t-255 67.5t-181 -53q-262 -153 -262 -591q0 -470 265 -632q92 -56 185.5 -56t187.5 55q267 156 267 633q0 137 -29 253l97 86q134 -169 134 -366q0 -284 -187.5 -498t-467 -214t-467 214.5t-187.5 498.5
t187 502t467 218q103 0 309 -23.5t309 -23.5q174 0 286 75q2 -23 2 -48z" />
    <glyph glyph-name="uni03ED" unicode="&#x3ed;" horiz-adv-x="1177" 
d="M1128 950q0 -45 -66.5 -88t-191.5 -43t-233.5 46.5t-169.5 46.5q-134 0 -200 -121q-52 -96 -52 -262.5t67 -311.5q87 -187 251 -187q249 0 249 376q0 148 -43 268l88 29q42 -30 80 -94t38 -123q0 -206 -127.5 -358t-324.5 -152t-319 143.5t-122 341t126.5 348.5
t321.5 151q57 0 170 -18.5t170 -18.5q173 0 286 75q2 -24 2 -48z" />
    <glyph glyph-name="uni03EE" unicode="&#x3ee;" horiz-adv-x="1286" 
d="M944 1284l-59 2q-75 0 -103 -9q-53 -18 -53 -76v-59q197 -20 328 -105q161 -104 161 -278q0 -106 -45 -187q-55 -97 -153 -97q-42 0 -69 28.5t-27 70.5t29 69.5t71 27.5q77 0 96 -83q46 67 46 155q0 151 -146 234q-112 64 -291 79v-912q0 -27 13.5 -52t91.5 -31h110v-61
q-71 6 -117 6h-373q-41 0 -112 -6v61q8 0 27.5 -0.5t29.5 -0.5q128 0 147 36q9 17 9 49v910q-178 -15 -290 -79q-145 -83 -145 -233q0 -88 46 -155q19 83 96 83q42 0 71 -27.5t29 -69.5t-27 -70.5t-69 -28.5q-98 0 -153 97q-45 81 -45 187q0 174 160 278q130 85 327 105v59
q0 32 -9 49q-18 34 -153 34h-51v62q71 -6 115 -6h376q41 0 111 6v-62z" />
    <glyph glyph-name="uni03EF" unicode="&#x3ef;" horiz-adv-x="970" 
d="M917 435q0 -62 -37.5 -119t-96.5 -57q-39 0 -68 31t-29 70t29.5 68.5t71 29.5t75.5 -37q1 11 1 18q0 223 -307 248v-530q0 -61 33 -79q23 -13 89 -13l44 1v-66q-193 6 -236 6t-236 -6v66l44 -1q66 0 89 13q33 18 33 79v530q-309 -24 -309 -248q0 -7 1 -18q34 37 75.5 37
t71 -29.5t29.5 -68.5t-29 -70t-68 -31q-59 0 -96.5 57t-37.5 119q0 145 114 228q95 70 249 84v19q0 61 -33 79q-23 13 -89 13l-44 -1v66q193 -6 236 -6t236 6v-66l-44 1q-66 0 -89 -13q-33 -18 -33 -79v-19q153 -15 248 -84q113 -83 113 -228z" />
    <glyph glyph-name="uni03F0" unicode="&#x3f0;" horiz-adv-x="1028" 
d="M976 259q0 -283 -152 -283q-105 0 -150 221q-26 130 -28 307l-293 -235q-8 -293 -123 -293q-64 0 -64 96q0 206 188 352q-5 124 -38 236q-49 163 -136 163q-80 0 -92 -161h-36v15q0 283 152 283q108 0 152 -213q26 -127 26 -300l288 232q15 281 122 281q46 0 60 -37
q8 -20 8 -76q0 -171 -187 -321q6 -129 40 -243q50 -170 135 -170q80 0 92 161h36v-15z" />
    <glyph glyph-name="uni03F1" unicode="&#x3f1;" horiz-adv-x="998" 
d="M52 459q0 200 126 350.5t321 150.5t320.5 -139t125.5 -340t-127.5 -353t-329.5 -152q-235 0 -360 207q32 -291 199 -376q23 -12 303 -64q166 -30 188 -185h-44q-64 61 -194 63q-181 2 -210 9q-318 80 -318 829zM782 406q0 187 -65 326q-84 180 -250 180q-134 0 -200 -121
q-52 -96 -52 -262.5t67 -311.5q87 -187 251 -187q249 0 249 376z" />
    <glyph glyph-name="uni03F2" unicode="&#x3f2;" horiz-adv-x="920" 
d="M839 276q29 0 29 -22.5t-27 -74.5q-106 -203 -329 -203q-194 0 -326.5 144.5t-132.5 343t132 347.5t330 149q99 0 207 -48q131 -58 131 -141t-81 -83q-47 0 -74 56q-48 99 -52 105q-43 56 -128 56q-60 0 -120 -34q-168 -95 -168 -403t178 -404q63 -34 123 -34
q113 0 181 64q40 37 74 109.5t53 72.5z" />
    <glyph glyph-name="uni03F3" unicode="&#x3f3;" horiz-adv-x="588" 
d="M385 -107q0 -133 -81 -232.5t-211 -99.5q-90 0 -159 40q-83 48 -83 132q0 42 27.5 70t69.5 28t70.5 -28t28.5 -70q0 -76 -74 -96q58 -29 114 -29q158 0 158 281v861q0 39 -9 60q-20 45 -148 45h-27v68l324 23v-1053z" />
    <glyph glyph-name="uni03F4" unicode="&#x3f4;" horiz-adv-x="1445" 
d="M722 -43q-280 0 -467 214t-187 498.5t186.5 502.5t468 218t468 -217.5t186.5 -503t-187.5 -499t-467.5 -213.5zM915 1286q-92 54 -192 54t-191 -53q-250 -146 -261 -556h903q-11 410 -259 555zM535 64q91 -56 185 -56t188 55q258 151 267 608h-905q8 -450 265 -607z" />
    <glyph glyph-name="uni03F5" unicode="&#x3f5;" horiz-adv-x="920" 
d="M839 276q29 0 29 -22.5t-27 -74.5q-106 -203 -329 -203q-194 0 -326.5 144.5t-132.5 343t132 347.5t330 149q99 0 207 -48q131 -58 131 -141t-81 -83q-47 0 -74 56q-48 99 -52 105q-43 56 -128 56q-60 0 -120 -34q-157 -88 -167 -371h330q59 0 59 -38.5t-59 -38.5h-330
q14 -271 177 -359q63 -34 123 -34q113 0 181 64q40 37 74 109.5t53 72.5z" />
    <glyph glyph-name="uni03F6" unicode="&#x3f6;" horiz-adv-x="920" 
d="M406 960q198 0 330 -149t132 -347.5t-132.5 -343t-326.5 -144.5q-223 0 -329 203q-27 52 -27 74.5t29 22.5q19 0 53 -72.5t74 -109.5q68 -64 181 -64q60 0 123 34q163 88 177 359h-330q-59 0 -59 38.5t59 38.5h330q-10 283 -167 371q-60 34 -120 34q-85 0 -128 -56
q-4 -6 -52 -105q-27 -56 -74 -56q-81 0 -81 83t131 141q108 48 207 48z" />
    <glyph glyph-name="uni03F7" unicode="&#x3f7;" horiz-adv-x="1076" 
d="M736 1287l-82 2q-137 0 -159 -37q-13 -22 -13 -58v-66q1 -34 1 -47q193 -16 344 -114q180 -118 180 -293.5t-181 -293.5q-152 -99 -343 -114v-110q0 -39 7 -56q16 -40 202 -40q21 0 44 1v-61q-75 6 -154 6h-359q-80 0 -155 -6v61l81 -2q137 0 160 37q12 20 12 60v1038
q0 37 -7 54q-16 39 -225 39h-21v62q75 -6 155 -6h359q79 0 154 6v-62zM483 311q328 36 328 364t-328 362v-726z" />
    <glyph glyph-name="uni03F8" unicode="&#x3f8;" horiz-adv-x="990" 
d="M493 960q194 0 319.5 -138.5t125.5 -340t-127.5 -353.5t-329.5 -152q-145 0 -245 113q0 -23 0.5 -79.5t0.5 -84.5q0 -214 -36 -342h-149q37 173 37 311v1085q-1 55 -1 82q0 214 36 342h149q-37 -173 -37 -311v-218q101 86 257 86zM775 406q0 187 -65 326
q-84 180 -250 180q-108 0 -166 -84.5t-58 -197.5v-344q0 -110 89 -183t201 -73q249 0 249 376z" />
    <glyph glyph-name="uni03F9" unicode="&#x3f9;" horiz-adv-x="1335" 
d="M1243 320q0 -11 -5 -23q-63 -157 -191.5 -248.5t-294.5 -91.5q-288 0 -486 213t-198 502.5t198.5 503.5t485.5 214q166 0 294.5 -91.5t191.5 -248.5q5 -12 5 -23q0 -24 -23 -24q-15 0 -27.5 28.5t-49.5 95.5q-132 203 -366 203q-102 0 -209 -52q-298 -145 -298 -613.5
t322 -606.5q96 -41 185 -41q234 0 366 203q20 31 52 101q10 23 25 23q23 0 23 -24z" />
    <glyph glyph-name="uni03FA" unicode="&#x3fa;" horiz-adv-x="2085" 
d="M2019 0q-242 6 -344.5 6t-175.5 -6v62h5q161 0 161 58q0 15 -4 27l-316 968l-323 -1001q-13 -39 -39.5 -39t-38.5 37l-329 1003l-296 -910q-10 -31 -10 -39q0 -53 63 -81q48 -22 109 -23v-62q-155 6 -239 6t-174 -6v62q152 0 195 132l378 1156q13 39 38.5 39t37.5 -37
l328 -1003l323 1001q13 39 39.5 39t38.5 -37l395 -1207q6 -19 23 -53q23 -30 134 -30h21v-62z" />
    <glyph glyph-name="uni03FB" unicode="&#x3fb;" horiz-adv-x="1531" 
d="M656 267q-25 0 -40 41l-167 462l-199 -365q-41 -75 -41 -117.5t16.5 -110.5t16.5 -103q0 -98 -103 -98q-36 0 -61.5 26.5t-25.5 62.5q0 93 83 247l327 607q22 41 41 41q25 0 40 -41l169 -463l250 463q22 41 41 41q25 0 40 -41l234 -640q48 -131 86 -152q25 -14 116 -14
v-49q-83 -1 -195 -88h-30q-55 105 -97 221l-208 573l-252 -462q-22 -41 -41 -41z" />
    <glyph glyph-name="uni03FC" unicode="&#x3fc;" horiz-adv-x="990" 
d="M184 818q107 142 305 142t323.5 -138.5t125.5 -340t-127.5 -353.5t-329.5 -152q-145 0 -245 113q0 -24 0.5 -82t0.5 -100.5t-2 -86.5h429v-100h-436q-8 -82 -27 -151h-149q17 80 26 151h-68v100h77q2 35 2 69v594q0 209 95 335zM775 406q0 187 -65 326q-84 180 -250 180
q-108 0 -166 -84.5t-58 -197.5v-344q0 -110 89 -183t201 -73q249 0 249 376z" />
    <glyph glyph-name="uni03FD" unicode="&#x3fd;" horiz-adv-x="1335" 
d="M583 1390q288 0 486 -213t198 -502.5t-199 -503.5t-485 -214q-167 0 -295.5 91.5t-190.5 248.5q-5 12 -5 23q0 24 23 24q14 0 27 -28.5t50 -95.5q132 -203 366 -203q102 0 209 52q298 145 298 613.5t-322 606.5q-96 41 -185 41q-234 0 -366 -203q-21 -31 -52 -101
q-11 -23 -25 -23q-23 0 -23 24q0 11 5 23q62 157 191 248.5t295 91.5z" />
    <glyph glyph-name="uni03FE" unicode="&#x3fe;" horiz-adv-x="1335" 
d="M1243 320q0 -11 -5 -23q-63 -157 -191.5 -248.5t-294.5 -91.5q-288 0 -486 213t-198 502.5t198.5 503.5t485.5 214q166 0 294.5 -91.5t191.5 -248.5q5 -12 5 -23q0 -24 -23 -24q-15 0 -27.5 28.5t-49.5 95.5q-132 203 -366 203q-102 0 -209 -52q-298 -145 -298 -613.5
t322 -606.5q96 -41 185 -41q234 0 366 203q20 31 52 101q10 23 25 23q23 0 23 -24zM870 672q0 -46 -32 -78t-78 -32t-78 32t-32 78t32 78t78 32t78 -32t32 -78z" />
    <glyph glyph-name="uni03FF" unicode="&#x3ff;" horiz-adv-x="1335" 
d="M583 1390q288 0 486 -213t198 -502.5t-199 -503.5t-485 -214q-167 0 -295.5 91.5t-190.5 248.5q-5 12 -5 23q0 24 23 24q14 0 27 -28.5t50 -95.5q132 -203 366 -203q102 0 209 52q298 145 298 613.5t-322 606.5q-96 41 -185 41q-234 0 -366 -203q-21 -31 -52 -101
q-11 -23 -25 -23q-23 0 -23 24q0 11 5 23q62 157 190.5 248.5t295.5 91.5zM685 675q0 -46 -32.5 -78t-78 -32t-77.5 32t-32 78t32 78t77.5 32t78 -32t32.5 -78z" />
    <glyph glyph-name="afii10147" unicode="&#x472;" horiz-adv-x="1445" 
d="M722 -43q-280 0 -467 214t-187 498.5t186.5 502.5t468 218t468 -217.5t186.5 -503t-187.5 -499t-467.5 -213.5zM1175 696q0 438 -260 590q-92 54 -192 54t-191 -53q-262 -153 -262 -591q0 -469 265 -632q91 -56 185 -56t188 55q267 156 267 633zM869 560q-70 0 -185 56.5
t-155 56.5q-100 0 -138 -113h-61q20 102 85 169.5t164 67.5q66 0 177 -54.5t158 -54.5q95 0 143 121h61q-32 -118 -79 -175q-62 -74 -170 -74z" />
    <glyph glyph-name="uni0485" unicode="&#x485;" horiz-adv-x="0" 
d="M631 1402l11 65q0 32 -37 32q-133 0 -233 -170l-27 18q121 219 313 219q66 0 118 -43t52 -99t-28.5 -87t-71.5 -31t-70 29t-27 67z" />
    <glyph glyph-name="uni0486" unicode="&#x486;" horiz-adv-x="0" 
d="M532 1467l10 -65q0 -38 -26.5 -67t-69.5 -29t-72 31t-29 87t52.5 99t118.5 43q191 0 312 -219l-26 -18q-100 170 -233 170q-37 0 -37 -32z" />
    <glyph glyph-name="uni04E8" unicode="&#x4e8;" horiz-adv-x="1445" 
d="M722 -43q-280 0 -467 214t-187 498.5t186.5 502.5t468 218t468 -217.5t186.5 -503t-187.5 -499t-467.5 -213.5zM915 1286q-92 54 -192 54t-191 -53q-250 -146 -261 -556h903q-11 410 -259 555zM535 64q91 -56 185 -56t188 55q258 151 267 608h-905q8 -450 265 -607z" />
    <glyph glyph-name="uni04E9" unicode="&#x4e9;" horiz-adv-x="1054" 
d="M191.5 118.5q-138.5 142.5 -138.5 341.5t138 349.5t336.5 150.5t336.5 -151t138 -350.5t-139 -341t-336 -141.5t-335.5 142.5zM767 773q-84 138 -244.5 138t-241.5 -143q-49 -87 -51 -254h593q-2 171 -56 259zM285 174q83 -144 246.5 -144t244.5 158q46 90 47 260h-593
q2 -181 55 -274z" />
    <glyph glyph-name="uni2000" unicode="&#x2000;" horiz-adv-x="1024" 
 />
    <glyph glyph-name="uni2001" unicode="&#x2001;" 
d="M0 1606zM2048 1606z" />
    <glyph glyph-name="uni2002" unicode="&#x2002;" horiz-adv-x="1024" 
 />
    <glyph glyph-name="uni2003" unicode="&#x2003;" 
d="M0 1606zM2048 1606z" />
    <glyph glyph-name="uni2004" unicode="&#x2004;" horiz-adv-x="683" 
 />
    <glyph glyph-name="uni2005" unicode="&#x2005;" horiz-adv-x="512" 
 />
    <glyph glyph-name="uni2006" unicode="&#x2006;" horiz-adv-x="341" 
 />
    <glyph glyph-name="uni2007" unicode="&#x2007;" horiz-adv-x="1043" 
 />
    <glyph glyph-name="uni2008" unicode="&#x2008;" horiz-adv-x="256" 
 />
    <glyph glyph-name="uni2009" unicode="&#x2009;" horiz-adv-x="410" 
 />
    <glyph glyph-name="uni200A" unicode="&#x200a;" horiz-adv-x="128" 
 />
    <glyph glyph-name="afii61664" unicode="&#x200c;" horiz-adv-x="0" 
 />
    <glyph glyph-name="afii301" unicode="&#x200d;" horiz-adv-x="0" 
 />
    <glyph glyph-name="afii300" unicode="&#x200f;" horiz-adv-x="0" 
 />
    <glyph glyph-name="uni2011" unicode="&#x2011;" horiz-adv-x="512" 
 />
    <glyph glyph-name="figuredash" unicode="&#x2012;" horiz-adv-x="1043" 
d="M948 582q0 -41 -37 -41h-777q-39 0 -39 41t39 41h777q37 0 37 -41z" />
    <glyph glyph-name="endash" unicode="&#x2013;" horiz-adv-x="1024" 
d="M929 582q0 -41 -37 -41h-758q-39 0 -39 41t39 41h758q37 0 37 -41z" />
    <glyph glyph-name="emdash" unicode="&#x2014;" 
d="M1953 582q0 -41 -37 -41h-1782q-39 0 -39 41t39 41h1782q37 0 37 -41z" />
    <glyph glyph-name="afii00208" unicode="&#x2015;" 
d="M1858 582q0 -41 -37 -41h-1782q-39 0 -39 41t39 41h1782q37 0 37 -41z" />
    <glyph glyph-name="uni2016" unicode="&#x2016;" horiz-adv-x="790" 
d="M246 -311q0 -41 -41 -41t-41 41v1788q0 39 41 39t41 -39v-1788zM626 -311q0 -41 -41 -41t-41 41v1788q0 39 41 39t41 -39v-1788z" />
    <glyph glyph-name="quoteleft" unicode="&#x2018;" horiz-adv-x="536" 
d="M341.5 935q28.5 -29 28.5 -73.5t-29 -73t-73 -28.5q-68 0 -103 71q-26 55 -26 132q0 205 141 345q29 28 41 28q18 0 18 -21q0 -9 -22 -32q-135 -135 -135 -332q0 -15 4 -24q1 2 5 6q32 31 77 31t73.5 -29z" />
    <glyph glyph-name="quoteright" unicode="&#x2019;" horiz-adv-x="536" 
d="M397 1136q0 -206 -141 -346q-29 -28 -41 -28q-18 0 -18 21q0 9 22 32q136 136 136 332q0 15 -4 24q-1 -2 -5 -6q-33 -31 -77.5 -31t-73.5 29t-29 73.5t29 73t73 28.5q69 0 103 -71q26 -55 26 -131z" />
    <glyph glyph-name="quotereversed" unicode="&#x201b;" horiz-adv-x="536" 
d="M295 1134q-46 0 -83 37q-4 -9 -4 -24q0 -196 136 -332q23 -23 23 -32q0 -21 -19 -21q-11 0 -40 28q-142 140 -142 346q0 76 27 131q34 71 102 71q44 0 73 -28.5t29 -73t-28.5 -73.5t-73.5 -29z" />
    <glyph glyph-name="dagger" unicode="&#x2020;" horiz-adv-x="857" 
d="M678 962q70 0 70 -65t-70 -65q-43 0 -120.5 21.5t-109.5 25.5q4 -47 25.5 -180.5t21.5 -206.5q0 -501 -39 -783q-5 -38 -27.5 -38t-27.5 38q-38 282 -38 783q0 73 21 206.5t25 180.5q-32 -4 -109 -25.5t-121 -21.5q-71 0 -71 65t71 65q43 0 120 -21.5t110 -25.5
q-2 67 -24 211t-22 222t66 78t66 -78t-22 -222t-25 -211q33 4 110 25.5t120 21.5z" />
    <glyph glyph-name="daggerdbl" unicode="&#x2021;" horiz-adv-x="857" 
d="M748 986q0 -63 -71 -63q-43 0 -119.5 21.5t-110.5 24.5q3 -54 25 -169t22 -183.5t-65 -68.5t-65 68.5t22 183.5t24 169q-33 -3 -110 -24.5t-120 -21.5q-72 0 -72 63q0 66 72 66q44 0 121 -21.5t109 -24.5q-2 55 -24 169.5t-22 175.5q0 75 65 75t65 -75
q0 -61 -22.5 -175.5t-24.5 -169.5q33 3 110 24.5t120 21.5q71 0 71 -66zM748 108q0 -63 -71 -63q-43 0 -119.5 21.5t-110.5 24.5q3 -54 25 -169t22 -183t-65 -68t-65 68t22 183t24 169q-33 -3 -110 -24.5t-120 -21.5q-72 0 -72 63q0 66 72 66q44 0 121 -21.5t109 -24.5
q-2 55 -24 169.5t-22 175.5q0 75 65 75t65 -75q0 -61 -22.5 -175.5t-24.5 -169.5q33 3 110 24.5t120 21.5q71 0 71 -66z" />
    <glyph glyph-name="bullet" unicode="&#x2022;" horiz-adv-x="738" 
d="M698 582q0 -137 -96 -233t-233 -96t-233 96t-96 233t96 233t233 96t233 -96t96 -233z" />
    <glyph glyph-name="uni2023" unicode="&#x2023;" horiz-adv-x="512" 
d="M464 582l-399 -248v496z" />
    <glyph glyph-name="onedotenleader" unicode="&#x2024;" horiz-adv-x="682" 
d="M420.5 -25.5q33.5 -33.5 33.5 -80t-33 -79.5t-80 -33t-80 33t-33 80t33 80t79.5 33t80 -33.5z" />
    <glyph glyph-name="ellipsis" unicode="&#x2026;" 
d="M1103 -26.5q34 -33.5 34 -79t-34 -79t-79.5 -33.5t-79 33.5t-33.5 80t33 79t79 32.5t80 -33.5zM420.5 -25.5q33.5 -33.5 33.5 -80t-33 -79.5t-80 -33t-80 33t-33 80t33 80t79.5 33t80 -33.5zM1786 -26.5q34 -33.5 34 -79t-34 -79t-79.5 -33.5t-79 33.5t-33.5 80t33 79
t79 32.5t80 -33.5z" />
    <glyph glyph-name="uni2027" unicode="&#x2027;" horiz-adv-x="512" 
d="M367 494h-222v222h222v-222z" />
    <glyph glyph-name="uni2028" unicode="&#x2028;" horiz-adv-x="0" 
 />
    <glyph glyph-name="uni2029" unicode="&#x2029;" horiz-adv-x="0" 
 />
    <glyph glyph-name="uni202A" unicode="&#x202a;" horiz-adv-x="0" 
 />
    <glyph glyph-name="uni202B" unicode="&#x202b;" horiz-adv-x="0" 
 />
    <glyph glyph-name="afii61573" unicode="&#x202c;" horiz-adv-x="0" 
 />
    <glyph glyph-name="afii61574" unicode="&#x202d;" horiz-adv-x="0" 
 />
    <glyph glyph-name="afii61575" unicode="&#x202e;" horiz-adv-x="0" 
 />
    <glyph glyph-name="uni202F" unicode="&#x202f;" horiz-adv-x="256" 
 />
    <glyph glyph-name="minute" unicode="&#x2032;" horiz-adv-x="506" 
d="M481 1458q0 -16 -9 -32l-385 -667q-14 -25 -36 -25t-22 17q0 8 6 26l239 707q18 54 94 54q40 0 76.5 -21.5t36.5 -58.5z" />
    <glyph glyph-name="uni2035" unicode="&#x2035;" horiz-adv-x="506" 
d="M481 751q0 -17 -22 -17t-36 25l-385 667q-9 16 -9 32q0 37 36.5 58.5t76.5 21.5q76 0 94 -54l239 -707q6 -18 6 -26z" />
    <glyph glyph-name="uni2038" unicode="&#x2038;" horiz-adv-x="722" 
d="M697 -395h-138l-199 395l-197 -395h-138l336 673z" />
    <glyph glyph-name="fraction" unicode="&#x2044;" horiz-adv-x="0" 
d="M576 1416q0 -13 -6 -22l-1071 -1649q-11 -17 -35 -17q-40 0 -40 40q0 13 6 22l1071 1649q11 17 35 17q40 0 40 -40z" />
    <glyph glyph-name="uni2046" unicode="&#x2046;" horiz-adv-x="682" 
d="M570 -350h-391q-68 0 -68 41t68 41h309v809h-340q-37 0 -37 41t37 41h340v810h-309q-68 0 -68 40.5t68 40.5h391v-1864z" />
    <glyph glyph-name="uni2052" unicode="&#x2052;" horiz-adv-x="1520" 
d="M1336 1416q0 -13 -6 -22l-1071 -1649q-11 -17 -35 -17q-40 0 -40 40q0 13 6 22l1071 1649q11 17 35 17q40 0 40 -40zM468 1295q32 -32 32 -76.5t-32 -76.5t-77 -32t-77 32t-32 76.5t32 76.5t77 32t77 -32zM1206 42q32 -32 32 -76.5t-32 -76.5t-77 -32t-77 32t-32 76.5
t32 76.5t77 32t77 -32z" />
    <glyph glyph-name="uni2053" unicode="&#x2053;" horiz-adv-x="1058" 
d="M1021 659q0 -111 -71.5 -195t-175.5 -84t-251.5 116.5t-233.5 116.5q-136 0 -179 -131q-6 -29 -15.5 -65t-27.5 -36q-30 0 -30 57q0 109 72.5 193.5t176 84.5t251 -117t233.5 -117q155 0 192 184q9 49 31 49q28 0 28 -56z" />
    <glyph glyph-name="uni2055" unicode="&#x2055;" horiz-adv-x="660" 
d="M607 468q0 -27 -18.5 -48t-37.5 -21t-51.5 27t-53.5 27q-32 0 -32 -34q0 -28 65 -37t65 -61q0 -26 -20 -44.5t-46 -18.5q-45 0 -53.5 67.5t-44.5 67.5q-41 0 -41 -39q0 -14 27 -48t27 -57q0 -51 -64.5 -51t-64.5 51q0 18 28 50t28 55q0 39 -39 39q-34 0 -43 -67.5
t-62 -67.5q-23 0 -43 21.5t-20 44.5q0 52 66 58.5t66 38.5t-32 32q-22 0 -53.5 -25.5t-46.5 -25.5q-60 0 -60 63t57 63q21 0 55.5 -25t48.5 -25q34 0 34 29q0 36 -69 44t-69 55q0 24 21 45t45 21q49 0 60 -65t43 -65q38 0 38 37q0 19 -26.5 51t-26.5 51.5t21.5 36.5t46.5 17
t44.5 -18t19.5 -40.5t-27 -53t-27 -47.5q0 -39 43 -39q29 0 37.5 66t61.5 66q60 0 60 -60q0 -54 -65 -59.5t-65 -36.5q0 -37 31 -37q19 0 51 27.5t55 27.5q56 0 56 -63zM283 465q0 -45 47 -45t47 46.5t-44 46.5q-50 0 -50 -48z" />
    <glyph glyph-name="uni205D" unicode="&#x205d;" horiz-adv-x="340" 
d="M249 1356.5q34 -33.5 34 -79t-34 -79t-79.5 -33.5t-79 33.5t-33.5 80t33 79t79 32.5t80 -33.5zM249 148.5q34 -33.5 34 -79t-34 -79t-79.5 -33.5t-79 33.5t-33.5 80t33 79t79 32.5t80 -33.5zM249 752.5q34 -33.5 34 -79t-34 -79t-79.5 -33.5t-79 33.5t-33.5 80t33 79
t79 32.5t80 -33.5z" />
    <glyph glyph-name="uni205F" unicode="&#x205f;" horiz-adv-x="455" 
 />
    <glyph glyph-name="uni2060" unicode="&#x2060;" horiz-adv-x="0" 
 />
    <glyph glyph-name="uni2061" unicode="&#x2061;" horiz-adv-x="0" 
 />
    <glyph glyph-name="uni2062" unicode="&#x2062;" horiz-adv-x="0" 
 />
    <glyph glyph-name="uni2063" unicode="&#x2063;" horiz-adv-x="0" 
 />
    <glyph glyph-name="uni2064" unicode="&#x2064;" horiz-adv-x="0" 
 />
    <glyph glyph-name="uni2065" unicode="&#x2065;" horiz-adv-x="0" 
 />
    <glyph glyph-name="uni2066" unicode="&#x2066;" horiz-adv-x="0" 
 />
    <glyph glyph-name="uni2067" unicode="&#x2067;" horiz-adv-x="0" 
 />
    <glyph glyph-name="uni2068" unicode="&#x2068;" horiz-adv-x="0" 
 />
    <glyph glyph-name="uni2069" unicode="&#x2069;" horiz-adv-x="0" 
 />
    <glyph glyph-name="uni206A" unicode="&#x206a;" horiz-adv-x="0" 
 />
    <glyph glyph-name="uni206B" unicode="&#x206b;" horiz-adv-x="0" 
 />
    <glyph glyph-name="uni206C" unicode="&#x206c;" horiz-adv-x="0" 
 />
    <glyph glyph-name="uni206D" unicode="&#x206d;" horiz-adv-x="0" 
 />
    <glyph glyph-name="uni206E" unicode="&#x206e;" horiz-adv-x="0" 
 />
    <glyph glyph-name="uni206F" unicode="&#x206f;" horiz-adv-x="0" 
 />
    <glyph glyph-name="uni20DD" unicode="&#x20dd;" horiz-adv-x="0" 
d="M2083 582q0 -410 -287 -697t-697 -287t-697 287t-287 697t287 697t697 287t697 -287t287 -697zM1983 582q0 368 -258 626t-626.5 258t-626 -257.5t-257.5 -626.5t257.5 -626.5t626 -257.5t626.5 258t258 626z" />
    <glyph glyph-name="uni20E5" unicode="&#x20e5;" horiz-adv-x="0" 
d="M964 -341q0 -41 -39 -41q-31 0 -40 26l-673 1848q-2 5 -2 13q0 41 39 41q31 0 40 -26l673 -1848q2 -5 2 -13z" />
    <glyph glyph-name="uni2102" unicode="&#x2102;" horiz-adv-x="1389" 
d="M1336 258q0 -11 -7 -22q-80 -121 -248.5 -197t-324.5 -76q-318 0 -510 198t-192 516.5t192.5 517t509.5 198.5q97 0 218.5 -46t179.5 -46q41 0 54 46t39 46q32 0 32 -30v-397q0 -34 -32 -34q-22 0 -35 26q-13 35 -44 102q-55 100 -179 182.5t-233 82.5q-192 0 -286 -241
q-69 -176 -69 -406q0 -620 379 -620q249 0 418 156l68 68q15 14 28 14q42 0 42 -38zM1210 1248q-25 -15 -51 -15t-49 3q62 -56 100 -112v124zM332 678q0 412 180 607q-192 -69 -291 -232t-99 -381t106.5 -383.5t313.5 -227.5q-210 159 -210 617z" />
    <glyph glyph-name="uni210D" unicode="&#x210d;" horiz-adv-x="1676" 
d="M1463 76q48 0 48 -38t-35 -38h-599q-33 0 -33 39q0 36 55 36q78 0 97 19t19 92v446h-467v-457q0 -69 30 -87q20 -12 94 -12q48 0 48 -38t-35 -38h-599q-33 0 -33 39q0 36 57 36q78 0 96.5 19t18.5 92v982q0 69 -31 87q-20 11 -92 11q-49 0 -49 38.5t33 38.5h599
q35 0 35 -37.5t-57 -37.5q-78 0 -96.5 -19t-18.5 -92v-429h467v440q0 69 -31 88q-20 11 -92 11q-48 0 -48 38t33 38h599q35 0 35 -37.5t-57 -37.5q-78 0 -97 -19t-19 -92v-982q0 -69 30 -87q20 -12 95 -12zM1263 175v982q0 72 17 111h-208q18 -38 18 -100v-982
q0 -72 -17 -111h208q-18 38 -18 100zM473 175v982q0 72 17 111h-208q18 -38 18 -100v-982q0 -71 -17 -111h208q-18 38 -18 100z" />
    <glyph glyph-name="uni210F" unicode="&#x210f;" horiz-adv-x="1162" 
d="M1165 329q23 0 23 -19.5t-26 -87.5q-94 -246 -253 -246q-76 0 -124.5 49.5t-48.5 125.5q0 37 30 120q133 368 133 492q0 152 -117 152q-137 0 -236.5 -104.5t-135.5 -246.5l-118 -473q-15 -61 -26 -78q-21 -37 -67 -37q-57 0 -57 57q0 22 7 50l253 1009l-162 -59
q-19 -7 -28 -7q-29 0 -29 35q0 19 36 32l202 74l45 178q5 20 5 36q0 37 -78 40.5t-78 24.5q0 24 21 39q6 4 129.5 15t149.5 11t26 -22q0 3 -9 -33l-58 -234l376 137q19 7 28 7q29 0 29 -35q0 -19 -36 -32l-415 -151l-90 -361q135 172 322 172q111 0 176.5 -59.5t65.5 -170.5
t-137 -488q-36 -99 -36 -150q0 -72 58 -72q86 0 145 95q31 49 72 171q15 44 33 44z" />
    <glyph glyph-name="Ifraktur" unicode="&#x2111;" horiz-adv-x="1257" 
d="M1147 1339q-18 -110 -96 -188t-189 -78t-260.5 108.5t-243.5 108.5t-152.5 -55.5t-58.5 -133t51.5 -125.5t123.5 -48q32 0 57 8l8 -33q-34 -12 -70 -12q-93 0 -154 64t-61 157q0 126 103 208.5t221.5 82.5t224.5 -58q19 -11 161 -107q84 -58 144.5 -58t105 51.5
t58.5 122.5zM1135 920q-68 63 -110.5 63t-69.5 -22.5t-27 -55.5q0 -51 109.5 -219.5t109.5 -282.5q0 -186 -173 -305q-153 -106 -347 -106q-132 0 -227 71q-38 28 -127 132q-61 71 -117.5 71t-94.5 -80l-38 2q31 74 97 123t153 49t174 -80l140 -149q85 -80 174 -80t166 65.5
t77 159.5t-105.5 265t-105.5 264.5t58 157t142 63.5t162 -78z" />
    <glyph glyph-name="afii61289" unicode="&#x2113;" horiz-adv-x="863" 
d="M945 1347q0 -312 -361 -725q-56 -64 -112 -118l-93 -92q-7 -8 -7 -58q0 -102 39 -190q51 -113 140 -113q107 0 297 188h7q20 0 20 -23q0 -43 -120 -129.5t-208 -86.5q-245 0 -306 255q-107 -112 -131.5 -112t-24.5 19.5t144 159.5q-12 81 -12 154q0 344 207 735
q63 119 168 220t213 101q140 0 140 -185zM892 1365q0 116 -78 116q-90 0 -213 -249q-84 -168 -148 -373t-68 -366q507 539 507 872z" />
    <glyph glyph-name="uni2115" unicode="&#x2115;" horiz-adv-x="1540" 
d="M1347 1343q33 0 33 -33.5t-29 -40.5l-53 -4q-50 -9 -63 -51q-7 -22 -7 -87v-1130q0 -34 -36 -34q-19 0 -30 14l-851 1125v-884q0 -89 28.5 -116t118.5 -27q36 0 36 -37.5t-36 -37.5h-370q-35 0 -35 39q0 34 44 36q66 3 83 13q44 24 44 112v1009q-53 59 -113 59
q-33 0 -33 37.5t33 37.5h407q14 0 26 -16l596 -802v596q0 92 -27 119.5t-119 27.5q-36 0 -36 37.5t36 37.5h353zM1140 129v269l-646 870h-214z" />
    <glyph glyph-name="weierstrass" unicode="&#x2118;" horiz-adv-x="1518" 
d="M1428 1015q0 -156 -83 -296t-221 -239t-241.5 -99t-168 53t-64.5 133t35.5 135t101.5 55q74 0 74 -73q0 -30 -22 -52.5t-83 -40.5q-43 -12 -43 -57t49 -77t101 -32t124 46q116 74 192 253.5t76 331.5q0 72 -39.5 129t-105.5 57t-129 -30q-124 -59 -291 -211t-276 -287
q145 -297 145 -435q0 -84 -34 -165.5t-95.5 -119t-113 -37.5t-109.5 30q-117 61 -117 217q0 97 54 204q29 58 114 181q-61 150 -61 244q0 185 158 366q122 141 318 258l26 -43q-341 -202 -341 -494q0 -83 32 -157q346 367 499 454.5t274.5 87.5t193 -84.5t71.5 -205.5z
M431 151q0 132 -150 387q-84 -130 -99 -158q-46 -90 -46 -172.5t46 -143t113.5 -60.5t101.5 42.5t34 104.5z" />
    <glyph glyph-name="uni2119" unicode="&#x2119;" horiz-adv-x="1207" 
d="M681 599l-86 2q-14 0 -57 -1v-418q0 -78 33 -96q20 -11 107 -11q34 0 34 -37.5t-34 -37.5h-591q-34 0 -34 39q0 36 40 36q84 0 102.5 16.5t18.5 94.5v975q0 71 -18 89t-94 18q-49 0 -49 37.5t34 37.5h596q214 0 347 -78q165 -96 165 -289t-171 -294q-142 -83 -343 -83z
M1120 970q0 219 -250 278q59 -79 59 -271.5t-63 -279.5q254 69 254 273zM821 766q33 64 33 209.5t-30 204.5q-44 88 -180 88q-39 0 -72.5 -19.5t-33.5 -55.5v-518h105q130 0 178 91zM289 1161v-975q0 -72 -15 -111h208q-19 39 -19 107v1011q0 42 23 75h-213q16 -38 16 -107z
" />
    <glyph glyph-name="uni211A" unicode="&#x211a;" horiz-adv-x="1493" 
d="M1261 -223l127 17q37 0 37 -38q0 -46 -144 -76.5t-224 -30.5q-168 0 -311.5 94t-210.5 248q-233 64 -357.5 248t-124.5 432q0 315 192 511.5t507 196.5t506.5 -196.5t191.5 -511.5q0 -260 -135.5 -446.5t-384.5 -241.5q46 -94 136 -150t195 -56zM1033 95
q165 72 253.5 223.5t88.5 354.5t-91 354.5t-254 222.5q145 -178 145 -576.5t-142 -578.5zM402 671q0 -634 349 -634t349 634t-349 634t-349 -634zM128 671q0 -417 340 -574q-141 182 -141 576.5t144 575.5q-162 -72 -252.5 -223t-90.5 -355zM853 -26q-47 -12 -108 -12
t-119 20q151 -258 431 -258q15 0 50 4q-148 54 -254 246z" />
    <glyph glyph-name="Rfraktur" unicode="&#x211c;" horiz-adv-x="1458" 
d="M988 376v68q1 45 1 66q0 69 -29 131q-36 78 -98 78q-14 0 -127 -47q0 -167 -20 -256q-30 -133 -119 -223q-43 -44 -137.5 -106.5t-130.5 -94.5l-125 141l-68 -51l-22 29l217 168l123 -146q57 31 75 79q13 34 13 112v585q0 432 -217 432q-75 0 -135 -51.5t-60 -125
t64 -133.5l120 -102q64 -68 64 -157t-47 -162.5t-125 -95.5l-6 33q96 39 96 110q0 54 -68 109q-120 96 -126 103q-68 72 -68 169q0 140 100.5 246.5t239.5 106.5q112 0 210 -56.5t119 -156.5q179 87 357 217l160 -124q73 -74 73 -186q0 -170 -256 -286q102 -70 128 -244
q8 -140 18 -277t78 -137q28 0 83 56l23 -31l-219 -174q-159 89 -159 384zM1122 1020q0 82 -61 144.5t-143 62.5q-57 0 -205 -88q22 -102 22 -426q187 69 245 104q142 85 142 203z" />
    <glyph glyph-name="uni211D" unicode="&#x211d;" horiz-adv-x="1548" 
d="M1366 75q33 0 33 -37.5t-33 -37.5h-339q-16 0 -25 14l-387 598h-65v-430q0 -71 23 -89t87 -18t64 -36q0 -39 -34 -39h-603q-34 0 -34 39q0 36 67.5 36t87 19t19.5 92v975q0 71 -23.5 89t-87 18t-63.5 37.5t34 37.5h645q201 0 346 -81q177 -99 177 -285q0 -281 -342 -343
q356 -559 453 -559zM925 713q255 58 255 261.5t-263 271.5q72 -88 72 -269t-64 -264zM596 686q186 0 252 54.5t66 221t-54.5 236.5t-200.5 70q-109 0 -109 -75v-507h46zM1231 75q-147 136 -411 564q-48 -17 -118 -24l350 -540h179zM302 1161v-975q0 -71 -18 -111h210
q-19 40 -19 107v1011q0 42 22 75h-214q19 -40 19 -107z" />
    <glyph glyph-name="uni2124" unicode="&#x2124;" horiz-adv-x="1351" 
d="M1157 0h-1069q-35 0 -35 39q0 10 749 1229h-147q-326 0 -431 -191l-23 -73q-16 -50 -43 -50q-37 0 -37 33v7l35 314q4 35 33 35h961q35 0 35 -37q0 -12 -4 -19l-744 -1212h277q135 0 247 66.5t173 184.5l38 121q12 32 37 32q37 0 37 -29q0 -3 -1 -7l-56 -407
q-5 -36 -32 -36zM318 1268h-91l-8 -74q42 43 99 74zM1081 1268h-191l-731 -1193h190zM1135 192q-59 -70 -139 -117h123z" />
    <glyph glyph-name="uni212B" unicode="&#x212b;" horiz-adv-x="1484" 
d="M1417 0q-127 6 -297.5 6t-244.5 -6v61h5q157 0 157 59q0 29 -39 136l-70 192h-487l-61 -163q-34 -90 -34 -123q0 -51 52 -78q42 -23 97 -23v-61q-189 6 -239.5 6t-187.5 -6v61q174 2 219 133l358 1029q-104 58 -104 178q0 84 58.5 144.5t142.5 60.5t142.5 -59.5
t58.5 -143.5q0 -121 -104 -180l374 -1083q21 -61 84 -75q19 -5 77 -5q19 0 43 1v-61zM873 1403q0 54 -38.5 93.5t-92 39.5t-92.5 -40.5t-39 -94.5t38.5 -93.5t92 -39.5t92.5 40.5t39 94.5zM906 510l-222 641l-220 -641h442z" />
    <glyph glyph-name="aleph" unicode="&#x2135;" horiz-adv-x="1417" 
d="M248 1363l-14 -72q0 -86 94 -182q73 -75 135 -126l360 -297l264 330q-126 102 -126 190q0 139 181 175q-38 -54 -38 -93q0 -64 111.5 -157.5t111.5 -171.5t-89 -128q-28 94 -102 149l-268 -333l213 -179q145 -130 178 -196q21 -42 21 -81q0 -88 -78 -175q-48 -53 -67 -53
t-19 17q0 8 13 43t13 57q0 73 -77 154q-26 28 -135 118l-586 485q-124 -148 -124 -251.5t138 -241.5t138 -215q0 -166 -250 -166q-83 0 -83 31q0 3 46.5 31t46.5 73.5t-51 151.5t-62.5 146.5t-11.5 104.5q0 155 175 368l-142 136q-74 71 -74 149q0 47 26 98q66 129 112 129
q20 0 20 -18z" />
    <glyph glyph-name="uni2136" unicode="&#x2136;" horiz-adv-x="1366" 
d="M1186 179l40 2q50 0 50 -41q0 -17 -9 -26l-109 -104q-10 -10 -27 -10h-1006q-35 0 -35 39q0 17 14 33.5t66 61.5t67 45h871v804q0 60 -86 60h-450q-191 0 -272 38q-122 57 -122 226q0 74 35 74q17 0 41 -45.5t29 -50.5q61 -62 289 -62h456q101 0 135 -60q23 -42 23 -152
v-832z" />
    <glyph glyph-name="uni2137" unicode="&#x2137;" horiz-adv-x="950" 
d="M757 1223q103 0 103 -91q0 -89 -101 -89h-2q0 -22 35 -366t35 -552t-76 -208q-48 0 -66 167q-80 -84 -98 -84h-462q-35 0 -35 39q0 17 15 34.5t66 61.5t66 44h441v864q-19 0 -61 -0.5t-63 -0.5q-178 0 -261 43q-115 60 -115 222q0 74 35 74q17 0 41.5 -46t28.5 -50
q58 -62 289 -62h185z" />
    <glyph glyph-name="uni213F" unicode="&#x213f;" horiz-adv-x="1666" 
d="M1463 76q48 0 48 -38t-35 -38h-599q-33 0 -33 39q0 36 55 36q78 0 97 19t19 92v982q0 63 -22 81.5t-84 18.5h-255q-53 0 -76 -12q-30 -14 -30 -99v-982q0 -69 30 -87q19 -12 94 -12q48 0 48 -38t-35 -38h-599q-33 0 -33 39q0 36 57 36q78 0 96.5 19t18.5 92v982
q0 99 -87 99q-6 0 -17.5 -0.5t-16.5 -0.5q-51 0 -51 38.5t33 38.5h1390q35 0 35 -37.5t-57 -37.5q-77 0 -96.5 -19t-19.5 -92v-982q0 -69 25.5 -84t99.5 -15zM1263 175v982q0 72 17 111h-208q18 -38 18 -100v-982q0 -72 -17 -111h208q-18 38 -18 100zM300 1168v-982
q0 -71 -17 -111h208q-18 38 -18 100v982q0 71 18 111h-213q22 -41 22 -100z" />
    <glyph glyph-name="uni2140" unicode="&#x2140;" horiz-adv-x="1377" 
d="M1157 0h-1069q-35 0 -35 39q0 10 383 631l-379 617q-4 7 -4 19q0 37 34 37h1085q31 0 35 -35l34 -314v-7q0 -33 -37 -33q-26 0 -40 44l-26 79q-51 101 -187 151q-109 40 -244 40h-272l368 -598l-366 -595h277q133 0 247 67t173 184q11 41 38 121q12 32 37 32q37 0 37 -29
q0 -3 -1 -7l-56 -407q-5 -36 -32 -36zM1144 1197l-8 71h-90q57 -30 98 -71zM1135 192q-59 -70 -140 -117h124zM715 670l-368 598h-190l367 -598l-353 -573q-6 -11 -15 -22h193z" />
    <glyph glyph-name="uni2186" unicode="&#x2186;" horiz-adv-x="1396" 
d="M610 1343h174v-1254l417 547l127 -97l-567 -744h-128l-565 744l127 97l415 -546v1253z" />
    <glyph glyph-name="arrowleft" unicode="&#x2190;" 
d="M1931 582q0 -41 -39 -41h-1554q228 -162 288 -432q7 -31 7 -35q0 -24 -21 -27h-41q-14 0 -20 19q-33 175 -142 303.5t-278 192.5q-16 6 -16 20t16 23l46 18q282 122 363 428q3 16 9.5 40.5t26.5 26.5q-9 -1 36 -1q21 0 21 -27q0 -4 -7 -35q-59 -266 -288 -432h1554
q39 0 39 -41z" />
    <glyph glyph-name="arrowup" unicode="&#x2191;" horiz-adv-x="1024" 
d="M471 1200q-135 -223 -414 -293q-21 0 -23 23q1 -11 1 40q0 13 14 19q22 6 65 19q132 46 229.5 150.5t132.5 238.5q3 23 13 67q6 18 24 18t22 -18q4 -22 13 -66q35 -135 132.5 -239.5t229.5 -150.5q22 -6 65 -19q14 -4 14 -64q0 -18 -22 -18l-6 2q-102 28 -160 59
q-158 84 -248 232v-1481q0 -37 -41 -37t-41 37v1481z" />
    <glyph glyph-name="arrowright" unicode="&#x2192;" 
d="M1906 611q25 -11 25 -27t-15 -22l-46 -18q-190 -83 -296 -265q-41 -70 -79 -213q-2 -7 -8 -13t-53 -6q-21 0 -21 27q0 2 8 36q65 274 287 431h-1554q-39 0 -39 41t39 41h1554q-154 111 -238 288q-57 121 -57 179q0 24 21 28q-3 -1 41 -1q15 0 20 -19q14 -55 54 -163
q105 -217 317 -310z" />
    <glyph glyph-name="arrowdown" unicode="&#x2193;" horiz-adv-x="1024" 
d="M553 -36q136 223 414 293q22 0 22 -18q0 -60 -14 -64q-22 -6 -65 -19q-132 -46 -229.5 -150.5t-132.5 -239.5q-4 -22 -13 -66q-4 -18 -22 -18t-24 18q-4 23 -13 67q-35 134 -132.5 238.5t-229.5 150.5q-22 6 -65 19q-14 6 -14 19q0 51 -1 40q2 23 23 23l6 -2
q104 -29 161 -59q157 -83 247 -232v1481q0 37 41 37t41 -37v-1481z" />
    <glyph glyph-name="arrowboth" unicode="&#x2194;" 
d="M1917 605q14 -8 14 -22.5t-14 -20.5q-223 -79 -343 -283q-43 -74 -79 -213q-2 -7 -8 -13t-53 -6q-21 0 -21 27q0 2 8 36q65 274 287 431h-1370q228 -162 288 -432q7 -31 7 -35q0 -24 -21 -27h-41q-14 0 -20 19q-35 177 -143 305t-277 191q-16 6 -16 20.5t59 39.5
q138 59 233.5 171.5t133.5 261.5q3 15 10 43q5 18 25 20q-9 -1 36 -1q21 0 21 -27q0 -4 -7 -35q-59 -266 -288 -432h1370q-154 111 -238 288q-57 121 -57 179q0 24 21 27h41q15 0 20 -19q49 -191 144 -303t225 -169q19 -6 53 -21z" />
    <glyph glyph-name="arrowupdn" unicode="&#x2195;" horiz-adv-x="1024" 
d="M553 -35q135 222 414 292q20 0 23 -24q-1 9 -1 -39q0 -14 -14 -18q-76 -23 -117.5 -40.5t-90.5 -52.5q-173 -124 -222 -329q-3 -18 -10 -54q-5 -18 -23 -18t-22 18l-18 80q-14 62 -60 137q-109 177 -304 243q-20 4 -59 16q-14 5 -14 63q0 18 22 18l6 -2q102 -28 158 -57
q158 -82 250 -233v1234q-136 -223 -414 -292q-22 0 -22 63q0 13 14 18q20 5 59 16q194 66 304 244q44 72 65 154q3 21 12 62q5 18 23.5 18t22.5 -18q4 -22 13 -66q34 -133 131.5 -237.5t220.5 -150.5l75 -22q14 -5 14 -63q0 -18 -22 -18l-6 2q-277 76 -408 290v-1234z" />
    <glyph glyph-name="uni2196" unicode="&#x2196;" 
d="M1924 -274q0 -44 -44 -44q-14 0 -24 10l-1556 1556q19 -77 19 -150q0 -173 -101 -345q-8 -13 -18.5 -13t-30.5 20t-20 30l35 69q56 112 56 249q0 160 -76 283q-40 66 -40 68q0 23 24 23l67 -40q127 -76 273 -76t259 56q71 35 67 35q10 0 30.5 -19t20.5 -31t-12 -19
q-165 -100 -346 -100q-76 0 -149 18l1556 -1556q10 -10 10 -24z" />
    <glyph glyph-name="uni2197" unicode="&#x2197;" 
d="M1924 1459q0 -2 -40 -68q-76 -123 -76 -271.5t56 -260.5l35 -69q0 -10 -20 -30t-30.5 -20t-18.5 13q-101 172 -101 345q0 73 19 150l-1556 -1556q-10 -10 -24 -10q-44 0 -44 44q0 14 10 24l1556 1556q-73 -18 -149 -18q-181 0 -346 100q-12 7 -12 19t20.5 31t30.5 19
q-4 0 67 -35q113 -56 259 -56t273 76l67 40q24 0 24 -23z" />
    <glyph glyph-name="uni2198" unicode="&#x2198;" 
d="M1924 -295q0 -23 -24 -23l-67 40q-127 76 -273 76t-259 -56q-71 -35 -67 -35q-10 0 -30.5 19t-20.5 31t12 19q165 100 346 100q76 0 149 -18l-1556 1556q-10 10 -10 24q0 44 44 44q14 0 24 -10l1556 -1556q-19 77 -19 150q0 173 101 345q8 13 18.5 13t30.5 -20t20 -30
l-35 -69q-56 -112 -56 -249q0 -160 76 -283q40 -66 40 -68z" />
    <glyph glyph-name="uni2199" unicode="&#x2199;" 
d="M1924 1438q0 -14 -10 -24l-1556 -1556q73 18 149 18q181 0 346 -100q12 -7 12 -19t-20.5 -31t-30.5 -19q4 0 -67 35q-113 56 -259 56t-273 -76l-67 -40q-24 0 -24 23q0 2 40 68q76 123 76 271.5t-56 260.5l-35 69q0 10 20 30t30.5 20t18.5 -13q101 -172 101 -345
q0 -73 -19 -150l1556 1556q10 10 24 10q44 0 44 -44z" />
    <glyph glyph-name="uni21A9" unicode="&#x21a9;" 
d="M1624 1168l-89 -10q-41 0 -41 44q0 48 130 48q348 0 348 -355q0 -244 -194 -316q-104 -38 -401 -38h-1039q222 -158 288 -432q7 -29 7 -35q0 -28 -37.5 -28t-43 18t-12.5 49q-37 146 -134.5 261t-274.5 188q-16 7 -16 21t62 40q133 56 229 170q114 135 141 294
q7 23 16 27t20 4q50 0 50 -28q0 -6 -7 -35q-65 -270 -288 -432h1159q184 0 271 44q122 62 122 228q0 142 -62 207.5t-204 65.5z" />
    <glyph glyph-name="uni21AA" unicode="&#x21aa;" 
d="M552 1158l-89 10q-142 0 -204 -65.5t-62 -207.5q0 -166 122 -228q87 -44 271 -44h1159q-223 162 -288 432q-7 29 -7 35q0 28 50 28q24 0 32 -20q4 -16 11 -47q37 -144 133.5 -258t229.5 -170q62 -26 62 -40t-16 -21q-177 -73 -274.5 -188t-134.5 -261q-3 -16 -11 -47
q-7 -20 -44.5 -20t-37.5 28q0 6 7 35q66 274 288 432h-1039q-297 0 -401 38q-194 72 -194 316q0 355 348 355q130 0 130 -48q0 -44 -41 -44z" />
    <glyph glyph-name="uni21BC" unicode="&#x21bc;" 
d="M1931 582q0 -41 -39 -41h-1710q-67 0 -67 41q0 16 62 41q132 54 230 170t133 258q2 16 11 47q8 20 45 20t37 -28q0 -7 -7 -35q-69 -273 -288 -432h1554q39 0 39 -41z" />
    <glyph glyph-name="uni21BD" unicode="&#x21bd;" 
d="M1931 582q0 -41 -39 -41h-1554q224 -163 288 -432q7 -30 7 -35q0 -28 -50 -28q-25 0 -30.5 18t-12.5 49q-37 145 -133 258t-230 170q-19 7 -40.5 16t-21.5 25q0 41 67 41h1710q39 0 39 -41z" />
    <glyph glyph-name="uni21C0" unicode="&#x21c0;" 
d="M1931 582q0 -41 -67 -41h-1710q-39 0 -39 41t39 41h1554q-219 159 -288 432q-7 28 -7 35q0 28 37 28t45 -20q4 -16 11 -47q35 -142 133 -258t230 -170q62 -25 62 -41z" />
    <glyph glyph-name="uni21C1" unicode="&#x21c1;" 
d="M1931 582q0 -16 -21.5 -25t-40.5 -16q-134 -57 -230 -170t-133 -258q-3 -28 -25 -64q-6 -3 -18 -3q-50 0 -50 28q0 5 7 35q64 269 288 432h-1554q-39 0 -39 41t39 41h1710q67 0 67 -41z" />
    <glyph glyph-name="arrowdblleft" unicode="&#x21d0;" 
d="M1932 383q0 -41 -37 -41h-1241q45 -44 126 -155t81 -146q0 -20 -23 -23q7 1 -38 1q-11 0 -17 12q-74 142 -162 238q-175 191 -418 272l-71 21q-16 5 -16 20t16 23l68 20q172 56 323 177.5t260 330.5q6 12 58 12q20 0 20 -28.5t-80.5 -138.5t-126.5 -156h1241q37 0 37 -41
t-37 -41h-1331q-120 -99 -262 -158q142 -59 262 -158h1331q37 0 37 -41z" />
    <glyph glyph-name="arrowdblup" unicode="&#x21d1;" horiz-adv-x="1251" 
d="M1189 755q0 -18 -29 -18t-134.5 78t-160.5 129v-1225q0 -37 -41 -37t-41 37v1315q-99 122 -157 264q-56 -139 -158 -264v-1315q0 -37 -41 -37t-41 37v1225q-47 -47 -156 -127t-145 -80q-23 0 -23 63q0 8 13 15q214 120 330.5 262t173.5 307l24 80q6 18 23 18t22 -18
q48 -163 115.5 -274t163 -199.5t250.5 -175.5q12 -7 12 -60z" />
    <glyph glyph-name="arrowdblright" unicode="&#x21d2;" 
d="M1932 582q0 -15 -14 -20q-36 -10 -107 -34q-357 -136 -546 -497q-6 -12 -58 -12q-20 0 -20 22q0 36 80.5 145.5t126.5 155.5h-1239q-39 0 -39 41t39 41h1329q120 99 262 158q-142 59 -262 158h-1329q-39 0 -39 41t39 41h1239q-50 52 -128.5 158.5t-78.5 142.5q0 20 23 23
q-5 -1 38 -1q11 0 17 -12q110 -208 259.5 -329.5t324.5 -178.5q28 -6 69 -20q14 -8 14 -23z" />
    <glyph glyph-name="arrowdbldown" unicode="&#x21d3;" horiz-adv-x="1251" 
d="M1189 364q0 -8 -12 -15q-158 -89 -238 -163q-196 -181 -273 -422q-5 -22 -18 -64q-6 -18 -22.5 -18t-22.5 18q-7 27 -24 81q-56 165 -174.5 309t-329.5 259q-13 7 -13 15v45q0 18 29 18t141 -81.5t154 -125.5v1225q0 37 41 37t41 -37v-1315q101 -125 158 -264
q57 142 157 264v1315q0 37 41 37t41 -37v-1225q46 46 156 126.5t145 80.5q21 0 24 -24q-1 7 -1 -39z" />
    <glyph glyph-name="arrowdblboth" unicode="&#x21d4;" horiz-adv-x="2560" 
d="M2444 605q14 -8 14 -22.5t-14 -20.5q-201 -89 -318.5 -204t-188.5 -255l-32 -70q-7 -14 -59 -14q-21 0 -21 22q0 38 67.5 142.5t113.5 158.5h-1452q43 -47 111.5 -155t68.5 -146q0 -22 -61 -22q-11 0 -19 19l-30 64q-88 176 -242 304q-116 97 -264 156q-16 6 -16 20.5
t16 22.5q31 13 92 41q276 140 414 417l31 68q7 14 59 14q20 0 20 -22q0 -38 -68 -144.5t-112 -156.5h1452q-48 58 -114.5 160.5t-66.5 140.5q0 22 62 22q11 0 18 -14l57 -115q31 -55 72 -108q135 -174 332 -269q28 -11 78 -34zM2303 582q-122 66 -219 158h-1608
q-97 -92 -219 -158q122 -66 219 -158h1608q97 92 219 158z" />
    <glyph glyph-name="uni21D5" unicode="&#x21d5;" horiz-adv-x="1251" 
d="M1189 127q0 -11 -17 -18q-334 -143 -490 -461l-21 -53q-17 -37 -35 -37q-14 0 -21 12q-11 26 -34 76q-101 204 -269 335q-76 59 -223 128q-17 8 -18 27q1 -17 1 36q0 19 30 19t139.5 -69.5t154.5 -110.5v1142q-48 -42 -156.5 -111t-144.5 -69q-23 0 -23 64q0 11 17 18
q343 147 500 477q9 22 28 64q5 10 19 10t22 -20l29 -66q66 -138 187.5 -261.5t307.5 -203.5q17 -7 17 -18v-45q0 -19 -29 -19t-134.5 67.5t-160.5 112.5v-1142q49 42 157 111t144 69q21 0 24 -24q-1 5 -1 -40zM783 -67v1298q-92 99 -157 219q-64 -117 -158 -219v-1298
q94 -102 158 -219q65 120 157 219z" />
    <glyph glyph-name="universal" unicode="&#x2200;" horiz-adv-x="1137" 
d="M1139 1380q0 -9 -531 -1400q-10 -25 -38 -25t-38 25q-532 1397 -532 1400q0 41 41 41q30 0 39 -24l178 -473h623l180 473q9 24 37 24q41 0 41 -41zM848 842h-557l278 -731z" />
    <glyph glyph-name="partialdiff" unicode="&#x2202;" horiz-adv-x="1087" 
d="M1036 810q0 -313 -128 -556q-159 -299 -443 -299q-183 0 -308 127t-125 316t130 345q161 193 390 193q108 0 187 -67.5t111 -174.5h2q16 132 16 218q0 199 -76 335q-95 168 -278 168q-208 0 -271 -162q7 1 14 1q38 0 65 -27t27 -64.5t-27.5 -65t-66 -27.5t-65 29
t-26.5 63t19 86q80 218 326.5 218t394.5 -212q132 -188 132 -444zM827 562q0 135 -69.5 232t-198.5 97q-186 0 -284 -182q-34 -63 -53.5 -184t-19.5 -214q0 -131 67 -215t194 -84q180 0 282 194q82 158 82 356z" />
    <glyph glyph-name="existential" unicode="&#x2203;" horiz-adv-x="1137" 
d="M1022 39q0 -39 -37 -39h-831q-39 0 -39 41t39 41h786v588h-760q-37 0 -37 41t37 41h760v587h-786q-39 0 -39 41t39 41h831q37 0 37 -37v-1345z" />
    <glyph glyph-name="emptyset" unicode="&#x2205;" horiz-adv-x="1591" 
d="M1518 582q0 -298 -211.5 -510.5t-509.5 -212.5q-205 0 -380 109l-214 -305q-12 -17 -34 -17q-40 0 -40 41q0 13 7 23l214 305q-276 218 -276 567q0 300 211.5 511.5t511.5 211.5q206 0 380 -109l214 306q11 15 33 15q41 0 41 -41q0 -11 -7 -21l-214 -306
q274 -218 274 -567zM1436 582q0 306 -239 499l-733 -1046q154 -94 333 -94q264 0 451.5 188.5t187.5 452.5zM797 1223q-266 0 -453.5 -187.5t-187.5 -453.5q0 -307 241 -500l733 1047q-153 94 -333 94z" />
    <glyph glyph-name="uni2206" unicode="&#x2206;" horiz-adv-x="1694" 
d="M1596 17q0 -17 -24 -17h-1450q-24 0 -24 17q0 6 4 14l695 1401q17 35 50.5 35t50.5 -35l694 -1401q4 -8 4 -14zM1346 146l-557 1126l-558 -1126h1115z" />
    <glyph glyph-name="gradient" unicode="&#x2207;" horiz-adv-x="1694" 
d="M1596 1373q0 -6 -4 -14l-695 -1401q-17 -35 -50.5 -35t-50.5 35l-694 1401q-4 8 -4 14q0 17 24 17h1450q24 0 24 -17zM1463 1244h-1115l557 -1126z" />
    <glyph glyph-name="element" unicode="&#x2208;" horiz-adv-x="1364" 
d="M1194 41q0 -41 -37 -41h-364q-253 0 -438 166t-185 416t185 416t438 166h364q37 0 37 -41t-37 -41h-358q-201 0 -373 -132t-172 -327h903q37 0 37 -41t-37 -41h-903q0 -195 172 -327t373 -132h358q37 0 37 -41z" />
    <glyph glyph-name="notelement" unicode="&#x2209;" horiz-adv-x="1364" 
d="M1194 41q0 -41 -37 -41h-364q-72 0 -143 15l-128 -351q-17 -47 -44 -47q-42 0 -42 38q0 15 8 37l126 346q-177 63 -288.5 208.5t-111.5 335.5q0 250 185 416t438 166h187l123 337q17 46 43 46q42 0 42 -37q0 -15 -8 -37l-112 -309h89q37 0 37 -41t-37 -41h-119l-167 -459
h286q37 0 37 -41t-37 -41h-316l-162 -446q61 -13 120 -13h358q37 0 37 -41zM799 1082q-201 0 -373 -132t-172 -327h529l167 459h-151zM254 541q0 -144 98.5 -256.5t246.5 -166.5l154 423h-499z" />
    <glyph glyph-name="uni220A" unicode="&#x220a;" horiz-adv-x="1164" 
d="M994 41q0 -41 -37 -41h-293q-201 0 -347.5 132t-146.5 330t146.5 330t347.5 132h293q37 0 37 -41t-37 -41h-293q-158 0 -275.5 -96.5t-134.5 -242.5h703q37 0 37 -41t-37 -41h-703q17 -146 134.5 -242.5t275.5 -96.5h293q37 0 37 -41z" />
    <glyph glyph-name="suchthat" unicode="&#x220b;" horiz-adv-x="1364" 
d="M1194 582q0 -250 -185 -416t-438 -166h-364q-37 0 -37 41t37 41h358q201 0 373 132t172 327h-903q-37 0 -37 41t37 41h903q0 195 -172 327t-373 132h-358q-37 0 -37 41t37 41h364q253 0 438 -166t185 -416z" />
    <glyph glyph-name="uni220C" unicode="&#x220c;" horiz-adv-x="1364" 
d="M1194 582q0 -250 -185 -416t-438 -166h-117l-122 -336q-17 -47 -44 -47q-42 0 -42 38q0 15 8 37l112 308h-159q-37 0 -37 41t37 41h189l167 459h-356q-37 0 -37 41t37 41h386l156 428q-93 31 -184 31h-358q-37 0 -37 41t37 41h364q107 0 207 -33l135 370q17 46 43 46
q42 0 42 -37q0 -15 -8 -37l-135 -372q153 -72 246 -209t93 -310zM1110 623q0 128 -79.5 232.5t-205.5 164.5l-144 -397h429zM1110 541h-459l-167 -459h81q201 0 373 132t172 327z" />
    <glyph glyph-name="uni220D" unicode="&#x220d;" horiz-adv-x="1164" 
d="M994 462q0 -198 -146.5 -330t-347.5 -132h-293q-37 0 -37 41t37 41h293q158 0 275.5 96.5t134.5 242.5h-703q-37 0 -37 41t37 41h703q-17 146 -134.5 242.5t-275.5 96.5h-293q-37 0 -37 41t37 41h293q201 0 347.5 -132t146.5 -330z" />
    <glyph glyph-name="uni220E" unicode="&#x220e;" horiz-adv-x="567" 
d="M453 39q0 -39 -37 -39h-262q-39 0 -39 39v307q0 37 39 37h262q37 0 37 -37v-307z" />
    <glyph glyph-name="product" unicode="&#x220f;" horiz-adv-x="1652" 
d="M1551 -255q0 -35 -27 -35h-478q-27 0 -27 35t27 35h81q72 0 72 55v1549h-746v-1549q0 -55 72 -55h81q27 0 27 -35t-27 -35h-478q-27 0 -27 35t27 35h81q72 0 72 55v1494q0 55 -72 55h-81q-27 0 -27 35t27 35h1396q27 0 27 -35t-27 -35h-81q-72 0 -72 -55v-1494
q0 -55 72 -55h81q27 0 27 -35z" />
    <glyph glyph-name="uni2210" unicode="&#x2210;" horiz-adv-x="1652" 
d="M1551 -255q0 -35 -27 -35h-1396q-27 0 -27 35t27 35h81q72 0 72 55v1494q0 55 -72 55h-81q-27 0 -27 35t27 35h478q27 0 27 -35t-27 -35h-81q-72 0 -72 -55v-1549h746v1549q0 55 -72 55h-81q-27 0 -27 35t27 35h478q27 0 27 -35t-27 -35h-81q-72 0 -72 -55v-1494
q0 -55 72 -55h81q27 0 27 -35z" />
    <glyph glyph-name="summation" unicode="&#x2211;" horiz-adv-x="1700" 
d="M829 1382h-597l560 -778q6 -8 6 -22t-8 -24l-604 -747h680q284 0 439 50q235 77 309 287h50l-148 -438h-1463q-17 0 -17 20q0 6 5 12l628 775l-628 872q-6 8 -6 36.5t19 28.5h1462l149 -410h-51q-80 215 -328 291q-156 47 -457 47z" />
    <glyph glyph-name="minus" unicode="&#x2212;" horiz-adv-x="1591" 
d="M1421 582q0 -41 -37 -41h-1175q-39 0 -39 41t39 41h1175q37 0 37 -41z" />
    <glyph glyph-name="uni2213" unicode="&#x2213;" horiz-adv-x="1591" 
d="M1477 342q0 -41 -37 -41h-602v-604q0 -37 -41 -37t-41 37v604h-602q-39 0 -39 41t39 41h602v559h-602q-39 0 -39 41t39 41h1286q37 0 37 -41t-37 -41h-602v-559h602q37 0 37 -41z" />
    <glyph glyph-name="uni2215" unicode="&#x2215;" horiz-adv-x="1024" 
d="M889 1505q0 -8 -2 -13l-673 -1848q-9 -26 -40 -26q-39 0 -39 41q0 8 2 13l673 1848q9 26 40 26q39 0 39 -41z" />
    <glyph glyph-name="uni2216" unicode="&#x2216;" horiz-adv-x="1024" 
d="M889 -341q0 -41 -39 -41q-31 0 -40 26l-673 1848q-2 5 -2 13q0 41 39 41q31 0 40 -26l673 -1848q2 -5 2 -13z" />
    <glyph glyph-name="asteriskmath" unicode="&#x2217;" horiz-adv-x="964" 
d="M824 416q26 -12 26 -39.5t-16.5 -47t-35.5 -19.5t-31 9l-258 182l30 -319q0 -49 -56.5 -49t-56.5 49v5l29 314l-257 -182q-13 -9 -31.5 -9t-35.5 19.5t-17 47t27 39.5l287 132l-287 132q-27 13 -27 40t17 47t35.5 20t31.5 -9l257 -183l-29 319q0 49 56.5 49t56.5 -49v-5
l-30 -314l258 183q12 9 31 9t35.5 -20t16.5 -47t-26 -40l-287 -132z" />
    <glyph glyph-name="uni2218" unicode="&#x2218;" horiz-adv-x="580" 
d="M540 582q0 -104 -73 -177t-177 -73t-177 73t-73 177t73 177t177 73t177 -73t73 -177zM440 582q0 63 -43.5 106.5t-106.5 43.5t-106.5 -43.5t-43.5 -106.5t43.5 -106.5t106.5 -43.5t106.5 43.5t43.5 106.5z" />
    <glyph glyph-name="uni2219" unicode="&#x2219;" horiz-adv-x="580" 
d="M540 582q0 -104 -73 -177t-177 -73t-177 73t-73 177t73 177t177 73t177 -73t73 -177z" />
    <glyph glyph-name="radical" unicode="&#x221a;" horiz-adv-x="1706" 
d="M1747 1565q0 -10 -2 -14l-952 -1975q-9 -18 -56 -18q-13 0 -18 12l-408 897q-129 -98 -135 -98q-29 0 -29 29q0 9 9 16l243 184q8 6 18.5 6t16.5 -14l367 -807l870 1804q9 19 35 19q41 0 41 -41z" />
    <glyph glyph-name="angle" unicode="&#x2220;" horiz-adv-x="1479" 
d="M1362 41q0 -41 -37 -41h-1171q-39 0 -39 41q0 18 10 29l1165 1339q10 12 31 12q41 0 41 -41q0 -14 -10 -26l-1106 -1272h1079q37 0 37 -41z" />
    <glyph glyph-name="uni2223" unicode="&#x2223;" horiz-adv-x="626" 
d="M354 -401q0 -41 -41 -41t-41 41v1968q0 39 41 39t41 -39v-1968z" />
    <glyph glyph-name="uni2225" unicode="&#x2225;" horiz-adv-x="1024" 
d="M752 -405q0 -37 -41 -37t-41 37v1974q0 37 41 37t41 -37v-1974zM354 -405q0 -37 -41 -37t-41 37v1974q0 37 41 37t41 -37v-1974z" />
    <glyph glyph-name="logicaland" unicode="&#x2227;" horiz-adv-x="1364" 
d="M1249 -4q0 -41 -41 -41q-26 0 -37 25l-489 1103l-489 -1103q-11 -25 -37 -25q-41 0 -41 41q0 11 2 16l526 1188q11 25 39 25t39 -25l526 -1188q2 -5 2 -16z" />
    <glyph glyph-name="logicalor" unicode="&#x2228;" horiz-adv-x="1364" 
d="M1249 1183q0 -11 -2 -16l-526 -1188q-11 -25 -39 -25t-39 25l-526 1188q-2 5 -2 16q0 41 41 41q26 0 37 -25l489 -1103l489 1103q11 25 37 25q41 0 41 -41z" />
    <glyph glyph-name="intersection" unicode="&#x2229;" horiz-adv-x="1364" 
d="M1249 -8q0 -37 -41 -37t-41 37v792q0 171 -163 273q-140 86 -322.5 86t-321.5 -87q-163 -101 -163 -272v-792q0 -37 -41 -37t-41 37v799q0 202 189 326q164 108 378 108t379 -107q188 -124 188 -327v-799z" />
    <glyph glyph-name="union" unicode="&#x222a;" horiz-adv-x="1364" 
d="M1249 389q0 -203 -188 -327q-165 -107 -379 -107t-379 107q-188 124 -188 327v799q0 37 41 37t41 -37v-793q0 -169 164 -271q140 -87 321.5 -87t321.5 86q163 101 163 272v793q0 37 41 37t41 -37v-799z" />
    <glyph glyph-name="integral" unicode="&#x222b;" horiz-adv-x="1019" 
d="M814 1606q77 0 141 -42t64 -116t-76 -74t-76 75q0 69 67 78q-47 38 -120 38q-86 0 -126 -118q-30 -89 -45 -268l-18 -279q-25 -376 -100 -924q-23 -165 -90 -274q-88 -144 -231 -144q-78 0 -141 41.5t-63 116t76.5 74.5t76.5 -75q0 -69 -70 -78q48 -39 121 -39
q98 0 144 118q40 102 66 478t54 602l52 396q24 172 84 277q78 137 210 137z" />
    <glyph glyph-name="uni222E" unicode="&#x222e;" horiz-adv-x="1019" 
d="M814 1606q77 0 141 -42t64 -116t-76 -74t-76 75q0 69 67 78q-47 38 -120 38q-86 0 -126 -118q-35 -104 -60 -511q117 -35 190.5 -133.5t73.5 -231t-97 -238t-239 -118.5l-31 -239q-23 -165 -90 -274q-88 -144 -231 -144q-78 0 -141 41.5t-63 116t76.5 74.5t76.5 -75
q0 -69 -70 -78q48 -39 121 -39q98 0 144 118q34 86 50 251l18 262q-116 35 -189 133t-73 230t96.5 238t238.5 119l31 237q57 420 294 420zM763 369.5q81 91.5 81 203.5t-61 196.5t-159 117.5q-16 -239 -62 -624q120 15 201 106.5zM282 794.5q-80 -91.5 -80 -203.5t60.5 -196
t157.5 -117q24 319 62 623q-120 -15 -200 -106.5z" />
    <glyph glyph-name="uni2231" unicode="&#x2231;" horiz-adv-x="1019" 
d="M814 1606q77 0 141 -42t64 -116t-76 -74t-76 75q0 69 67 78q-47 38 -120 38q-86 0 -123.5 -111.5t-62.5 -517.5q117 -35 190.5 -133.5t73.5 -231t-97 -238t-239 -118.5l-31 -239q-23 -165 -90 -274q-88 -144 -231 -144q-78 0 -141 41.5t-63 116t76.5 74.5t76.5 -75
q0 -69 -70 -78q48 -39 121 -39q98 0 144 118q34 88 50 252l18 261q-114 35 -186.5 130t-75.5 214q-113 -102 -144 -102q-23 0 -23 35q0 4 32 20q103 51 135 128q15 37 24 37t24 -37q32 -77 135 -128q31 -15 31 -20q0 -35 -22 -35q-31 0 -144 102q3 -100 63 -181.5
t155 -113.5q27 348 51 535l49 373q24 177 84 283q78 137 210 137zM763 369.5q81 91.5 81 203.5t-61 196.5t-159 117.5q-23 -336 -62 -624q120 15 201 106.5z" />
    <glyph glyph-name="uni2232" unicode="&#x2232;" horiz-adv-x="1019" 
d="M814 1606q77 0 141 -42t64 -116t-76 -74t-76 75q0 69 67 78q-47 38 -120 38q-86 0 -126 -118q-35 -104 -60 -511q117 -35 190.5 -133.5t73.5 -231t-97 -238t-239 -118.5l-31 -239q-23 -165 -90 -274q-88 -144 -231 -144q-78 0 -141 41.5t-63 116t76.5 74.5t76.5 -75
q0 -69 -70 -78q48 -39 121 -39q98 0 144 118q34 86 50 252l18 261q-114 35 -186.5 130t-75.5 214q-113 -102 -144 -102q-23 0 -23 35q0 4 32 20q102 50 135 128q3 11 15 34q32 107 120 179t200 82l31 237q57 420 294 420zM763 369.5q81 91.5 81 203.5t-61 196.5t-159 117.5
q-16 -239 -62 -624q120 15 201 106.5zM368 506q0 -35 -22 -35q-31 0 -144 102q3 -100 63 -181.5t155 -113.5q24 317 62 623q-103 -13 -179 -85t-96 -174q38 -70 130 -116q31 -16 31 -20z" />
    <glyph glyph-name="uni2233" unicode="&#x2233;" horiz-adv-x="1019" 
d="M814 1606q77 0 141 -42t64 -116t-76 -74t-76 75q0 69 67 78q-47 38 -120 38q-86 0 -126 -118q-35 -104 -60 -511q117 -35 190.5 -133.5t73.5 -231t-97 -238t-239 -118.5l-31 -239q-23 -165 -90 -274q-88 -144 -231 -144q-78 0 -141 41.5t-63 116t76.5 74.5t76.5 -75
q0 -69 -70 -78q48 -39 121 -39q98 0 144 118q34 86 50 252l18 261q-190 58 -247 247q-2 2 -15 34q-33 78 -135 128q-32 16 -32 20q0 35 23 35q31 0 144 -102q4 140 100 242.5t235 115.5l31 237q57 420 294 420zM763 369.5q81 91.5 81 203.5t-61 196.5t-159 117.5
q-16 -239 -62 -624q120 15 201 106.5zM346 693q22 0 22 -35q0 -4 -31 -20q-92 -46 -130 -116q35 -183 213 -244q24 317 62 623q-117 -15 -197 -103.5t-83 -206.5q113 102 144 102z" />
    <glyph glyph-name="therefore" unicode="&#x2234;" horiz-adv-x="1364" 
d="M1273.5 192.5q33.5 -33.5 33.5 -80t-33 -79.5t-80 -33t-80 33t-33 80t33 80t79.5 33t80 -33.5zM249.5 192.5q33.5 -33.5 33.5 -80t-33 -79.5t-80 -33t-80 33t-33 80t33 80t79.5 33t80 -33.5zM761 1078.5q34 -33.5 34 -79t-34 -79t-79.5 -33.5t-79 33.5t-33.5 80t33 79
t79 32.5t80 -33.5z" />
    <glyph glyph-name="uni2235" unicode="&#x2235;" horiz-adv-x="1364" 
d="M761.5 192.5q33.5 -33.5 33.5 -80t-33 -79.5t-80 -33t-80 33t-33 80t33 80t79.5 33t80 -33.5zM1273 1078.5q34 -33.5 34 -79t-34 -79t-79.5 -33.5t-79 33.5t-33.5 80t33 79t79 32.5t80 -33.5zM249 1078.5q34 -33.5 34 -79t-34 -79t-79.5 -33.5t-79 33.5t-33.5 80t33 79
t79 32.5t80 -33.5z" />
    <glyph glyph-name="uni2238" unicode="&#x2238;" horiz-adv-x="1591" 
d="M875.5 1111.5q33.5 -33.5 33.5 -80t-33 -79.5t-80 -33t-80 33t-33 80t33 80t79.5 33t80 -33.5zM1421 582q0 -41 -37 -41h-1175q-39 0 -39 41t39 41h1175q37 0 37 -41z" />
    <glyph glyph-name="similar" unicode="&#x223c;" horiz-adv-x="1591" 
d="M1477 746q0 -152 -96 -271.5t-244 -119.5q-114 0 -238 88l-208 164q-123 88 -236 88q-162 0 -245 -147q-29 -52 -38 -142q-5 -51 -29 -51q-28 0 -28 63q0 152 95.5 271.5t244.5 119.5q115 0 240 -88l207 -164q124 -88 235 -88q85 0 156 50t104 130q15 36 21 98t30 62
q29 0 29 -63z" />
    <glyph glyph-name="uni223E" unicode="&#x223e;" horiz-adv-x="1591" 
d="M1518 584q0 -14 -11 -27q-105 -121 -164 -167q-101 -78 -205 -78t-206 78q-59 46 -160.5 161t-153.5 156q-83 65 -163 65t-163 -66q-50 -41 -148 -151q-12 -14 -31 -14q-39 0 -39 41q0 14 11 27q105 121 164 167q101 78 205.5 78t205.5 -77q63 -48 162.5 -161t152.5 -156
q84 -66 163 -66t162 66q50 41 148 151q12 14 31 14q39 0 39 -41z" />
    <glyph glyph-name="uni223F" unicode="&#x223f;" horiz-adv-x="1591" 
d="M1427 244q0 -28 -28 -39q-168 -67 -271.5 -67t-171.5 40q-117 68 -171 275l-84 332q-66 161 -222 161q-71 0 -262 -61q-9 -3 -13 -3q-39 0 -39 40q0 28 28 39q168 67 271.5 67t171.5 -40q119 -70 174 -276l83 -331q64 -161 220 -161q71 0 262 61q9 3 13 3q39 0 39 -40z
" />
    <glyph glyph-name="uni2240" unicode="&#x2240;" horiz-adv-x="1024" 
d="M739 -70q0 -29 -63 -29q-152 0 -271.5 96t-119.5 244q0 115 88 239l164 206q88 124 88 237q0 162 -147 245q-44 25 -142 38q-51 7 -51 29q0 28 63 28q152 0 271.5 -95.5t119.5 -244.5q0 -116 -88 -240l-164 -207q-88 -123 -88 -235q0 -84 50.5 -156t129.5 -104
q28 -11 94 -20t66 -31z" />
    <glyph glyph-name="uni2243" unicode="&#x2243;" horiz-adv-x="1591" 
d="M1477 1054q0 -152 -96 -271.5t-244 -119.5q-114 0 -238 88l-208 164q-123 88 -236 88q-162 0 -245 -147q-29 -52 -38 -142q-5 -51 -29 -51q-28 0 -28 63q0 152 95.5 271.5t244.5 119.5q115 0 240 -88l207 -164q124 -88 235 -88q85 0 156 50t104 130q15 36 21 98t30 62
q29 0 29 -63zM1477 282q0 -41 -37 -41h-1286q-39 0 -39 41t39 41h1286q37 0 37 -41z" />
    <glyph glyph-name="congruent" unicode="&#x2245;" horiz-adv-x="1591" 
d="M1477 1115q0 -152 -96 -271.5t-244 -119.5q-114 0 -238 88l-208 164q-123 88 -236 88q-162 0 -245 -147q-29 -52 -38 -142q-5 -51 -29 -51q-28 0 -28 63q0 152 95.5 271.5t244.5 119.5q115 0 240 -88l207 -164q124 -88 235 -88q85 0 156 50t104 130q15 36 21 98t30 62
q29 0 29 -63zM1477 441q0 -41 -37 -41h-1286q-39 0 -39 41t39 41h1286q37 0 37 -41zM1477 41q0 -41 -37 -41h-1286q-39 0 -39 41t39 41h1286q37 0 37 -41z" />
    <glyph glyph-name="approxequal" unicode="&#x2248;" horiz-adv-x="1591" 
d="M1477 495q0 -152 -96 -271.5t-244 -119.5q-114 0 -238 88l-208 164q-123 88 -236 88q-162 0 -245 -147q-29 -52 -38 -142q-5 -51 -29 -51q-28 0 -28 63q0 152 95.5 271.5t244.5 119.5q115 0 240 -88l207 -164q124 -88 235 -88q85 0 156 50t104 130q15 36 21 98t30 62
q29 0 29 -63zM1477 995q0 -152 -96 -271.5t-244 -119.5q-114 0 -238 88l-208 164q-123 88 -236 88q-162 0 -245 -147q-29 -52 -38 -142q-5 -51 -29 -51q-28 0 -28 63q0 152 95.5 271.5t244.5 119.5q115 0 240 -88l207 -164q124 -88 235 -88q85 0 156 50t104 130q15 36 21 98
t30 62q29 0 29 -63z" />
    <glyph glyph-name="uni2250" unicode="&#x2250;" horiz-adv-x="1591" 
d="M875.5 1309.5q33.5 -33.5 33.5 -80t-33 -79.5t-80 -33t-80 33t-33 80t33 80t79.5 33t80 -33.5zM1477 782q0 -41 -37 -41h-1286q-39 0 -39 41t39 41h1286q37 0 37 -41zM1477 382q0 -41 -37 -41h-1286q-39 0 -39 41t39 41h1286q37 0 37 -41z" />
    <glyph glyph-name="notequal" unicode="&#x2260;" horiz-adv-x="1591" 
d="M1477 382q0 -41 -37 -41h-768l-291 -505q-23 -40 -46 -40q-41 0 -41 38q0 15 16 43l268 464h-424q-39 0 -39 41t39 41h471l184 318h-655q-39 0 -39 41t39 41h702l292 506q23 39 45 39q41 0 41 -38q0 -16 -15 -42l-268 -465h489q37 0 37 -41t-37 -41h-537l-183 -318h720
q37 0 37 -41z" />
    <glyph glyph-name="equivalence" unicode="&#x2261;" horiz-adv-x="1591" 
d="M1477 982q0 -41 -37 -41h-1286q-39 0 -39 41t39 41h1286q37 0 37 -41zM1477 582q0 -41 -37 -41h-1286q-39 0 -39 41t39 41h1286q37 0 37 -41zM1477 182q0 -41 -37 -41h-1286q-39 0 -39 41t39 41h1286q37 0 37 -41z" />
    <glyph glyph-name="lessequal" unicode="&#x2264;" horiz-adv-x="1591" 
d="M1421 31q0 -41 -41 -41q-8 0 -14 3l-1169 552q-27 13 -27 37t27 37l1169 552q6 3 14 3q41 0 41 -41q0 -26 -24 -37l-1090 -514l1090 -514q24 -11 24 -37zM1421 -259q0 -41 -37 -41h-1175q-39 0 -39 41t39 41h1175q37 0 37 -41z" />
    <glyph glyph-name="greaterequal" unicode="&#x2265;" horiz-adv-x="1591" 
d="M1421 582q0 -24 -27 -37l-1169 -552q-6 -3 -14 -3q-41 0 -41 41q0 26 24 37l1090 514l-1090 514q-24 11 -24 37q0 41 41 41q8 0 14 -3l1169 -552q27 -13 27 -37zM1421 -259q0 -41 -37 -41h-1175q-39 0 -39 41t39 41h1175q37 0 37 -41z" />
    <glyph glyph-name="uni226A" unicode="&#x226a;" horiz-adv-x="2211" 
d="M1421 31q0 -41 -41 -41q-8 0 -14 3l-1169 552q-27 13 -27 37t27 37l1169 552q6 3 14 3q41 0 41 -41q0 -26 -24 -37l-1090 -514l1090 -514q24 -11 24 -37zM2041 31q0 -41 -41 -41q-8 0 -14 3l-1169 552q-27 13 -27 37t27 37l1169 552q6 3 14 3q41 0 41 -41q0 -26 -24 -37
l-1090 -514l1090 -514q24 -11 24 -37z" />
    <glyph glyph-name="uni226B" unicode="&#x226b;" horiz-adv-x="2211" 
d="M1421 582q0 -24 -27 -37l-1169 -552q-6 -3 -14 -3q-41 0 -41 41q0 26 24 37l1090 514l-1090 514q-24 11 -24 37q0 41 41 41q8 0 14 -3l1169 -552q27 -13 27 -37zM2041 582q0 -24 -27 -37l-1169 -552q-6 -3 -14 -3q-41 0 -41 41q0 26 24 37l1090 514l-1090 514
q-24 11 -24 37q0 41 41 41q8 0 14 -3l1169 -552q27 -13 27 -37z" />
    <glyph glyph-name="uni227A" unicode="&#x227a;" horiz-adv-x="1591" 
d="M1421 35q0 -45 -41 -45q-34 0 -41 39q-28 180 -141.5 282t-284.5 152q-268 78 -704 78q-39 0 -39 41t39 41q436 0 706 80q173 51 285 152t139 284q6 37 41 37q41 0 41 -43q0 -22 -12 -76q-42 -188 -196 -297q-178 -126 -455 -178q269 -47 453 -177q156 -110 198 -295
q12 -52 12 -75z" />
    <glyph glyph-name="uni227B" unicode="&#x227b;" horiz-adv-x="1591" 
d="M1421 582q0 -41 -37 -41q-267 0 -500 -31.5t-415.5 -142.5t-216.5 -338q-6 -39 -41 -39q-41 0 -41 45q0 12 8 53q25 130 106 225q172 203 550 269q-435 77 -590 327q-74 119 -74 224q0 43 41 43q35 0 41 -37q35 -232 215 -342t418 -142t499 -32q37 0 37 -41z" />
    <glyph glyph-name="uni227C" unicode="&#x227c;" horiz-adv-x="1591" 
d="M1421 35q0 -45 -41 -45q-34 0 -41 39q-28 180 -141.5 282t-284.5 152q-268 78 -704 78q-39 0 -39 41t39 41q436 0 706 80q173 51 285 152t139 284q6 37 41 37q41 0 41 -43q0 -22 -12 -76q-42 -188 -196 -297q-178 -126 -455 -178q269 -47 453 -177q156 -110 198 -295
q12 -52 12 -75zM1194 -275q0 -43 -41 -43q-34 0 -41 37q-23 156 -108.5 252t-221.5 155q-248 107 -573 107q-39 0 -39 41t45 41q257 0 470 -65q261 -80 397 -245q112 -136 112 -280z" />
    <glyph glyph-name="uni227D" unicode="&#x227d;" horiz-adv-x="1591" 
d="M1421 582q0 -41 -37 -41q-267 0 -500 -31.5t-415.5 -142.5t-216.5 -338q-6 -39 -41 -39q-41 0 -41 45q0 12 8 53q25 130 106 225q172 203 550 269q-435 77 -590 327q-74 119 -74 224q0 43 41 43q35 0 41 -37q35 -232 215 -342t418 -142t499 -32q37 0 37 -41zM1421 274
q0 -41 -37 -41q-326 0 -573 -107q-137 -60 -221.5 -155t-110.5 -252q-6 -37 -41 -37q-41 0 -41 43q0 9 6 43q24 135 109 237q138 165 397 245q212 65 469 65q43 0 43 -41z" />
    <glyph glyph-name="propersubset" unicode="&#x2282;" horiz-adv-x="1591" 
d="M1421 41q0 -41 -39 -41h-590q-248 0 -435 168.5t-187 413.5t187 413.5t435 168.5h590q39 0 39 -41t-39 -41h-584q-216 0 -381 -143.5t-165 -356.5t165 -356.5t381 -143.5h584q39 0 39 -41z" />
    <glyph glyph-name="propersuperset" unicode="&#x2283;" horiz-adv-x="1591" 
d="M1421 582q0 -245 -187 -413.5t-435 -168.5h-590q-39 0 -39 41t39 41h584q216 0 381 143.5t165 356.5t-165 356.5t-381 143.5h-584q-39 0 -39 41t39 41h590q248 0 435 -168.5t187 -413.5z" />
    <glyph glyph-name="notsubset" unicode="&#x2284;" horiz-adv-x="1591" 
d="M1421 41q0 -41 -39 -41h-590q-24 0 -47 2l-123 -338q-17 -47 -44 -47q-42 0 -42 38q0 15 8 37l117 322q-208 43 -349.5 200.5t-141.5 367.5q0 245 187 413.5t435 168.5h288l123 337q17 46 43 46q42 0 42 -37q0 -15 -8 -37l-112 -309h214q39 0 39 -41t-39 -41h-244
l-364 -999q12 -1 24 -1h584q39 0 39 -41zM798 1082q-216 0 -381 -143.5t-165 -356.5q0 -185 127 -319.5t311 -170.5l360 990h-252z" />
    <glyph glyph-name="uni2285" unicode="&#x2285;" horiz-adv-x="1591" 
d="M1421 582q0 -245 -187 -413.5t-435 -168.5h-255l-122 -336q-17 -47 -44 -47q-42 0 -42 38q0 15 8 37l112 308h-247q-39 0 -39 41t39 41h277l363 997q-28 3 -56 3h-584q-39 0 -39 41t39 41h590q40 0 79 -5l125 342q17 46 43 46q42 0 42 -37q0 -15 -8 -37l-120 -330
q197 -51 329 -205t132 -356zM1339 582q0 176 -117 308t-290 175l-358 -983h219q216 0 381 143.5t165 356.5z" />
    <glyph glyph-name="reflexsubset" unicode="&#x2286;" horiz-adv-x="1591" 
d="M1421 41q0 -41 -39 -41h-590q-248 0 -435 168.5t-187 413.5t187 413.5t435 168.5h590q39 0 39 -41t-39 -41h-584q-216 0 -381 -143.5t-165 -356.5t165 -356.5t381 -143.5h584q39 0 39 -41zM1421 -259q0 -41 -37 -41h-1175q-39 0 -39 41t39 41h1175q37 0 37 -41z" />
    <glyph glyph-name="reflexsuperset" unicode="&#x2287;" horiz-adv-x="1591" 
d="M1421 582q0 -245 -187 -413.5t-435 -168.5h-590q-39 0 -39 41t39 41h584q216 0 381 143.5t165 356.5t-165 356.5t-381 143.5h-584q-39 0 -39 41t39 41h590q248 0 435 -168.5t187 -413.5zM1421 -259q0 -41 -37 -41h-1175q-39 0 -39 41t39 41h1175q37 0 37 -41z" />
    <glyph glyph-name="uni2288" unicode="&#x2288;" horiz-adv-x="1591" 
d="M1421 -259q0 -41 -37 -41h-821l-42 -115q-10 -27 -37 -27q-43 0 -43 40q0 7 3 15l32 87h-267q-39 0 -39 41t39 41h297l90 249q-185 59 -305.5 208.5t-120.5 342.5q0 245 187 413.5t435 168.5h218l59 161q10 28 37 28q43 0 43 -40q0 -8 -3 -16l-49 -133h285q39 0 39 -41
t-39 -41h-315l-362 -992q47 -8 93 -8h584q39 0 39 -41t-39 -41h-590q-58 0 -116 11l-83 -229h791q37 0 37 -41zM798 1082q-216 0 -381 -143.5t-165 -356.5q0 -167 105.5 -295t267.5 -178l355 973h-182z" />
    <glyph glyph-name="uni2289" unicode="&#x2289;" horiz-adv-x="1591" 
d="M1421 -259q0 -41 -37 -41h-829l-42 -115q-10 -27 -37 -27q-43 0 -43 40q0 7 3 15l32 87h-259q-39 0 -39 41t39 41h289l79 218h-368q-39 0 -39 41t39 41h398l356 974q-84 26 -170 26h-584q-39 0 -39 41t39 41h590q98 0 192 -30l70 191q10 28 37 28q43 0 43 -40
q0 -8 -3 -16l-70 -192q157 -72 255 -211t98 -312q0 -245 -187 -413.5t-435 -168.5h-135l-79 -218h799q37 0 37 -41zM1339 582q0 147 -83 264.5t-217 180.5l-345 -945h99q216 0 381 143.5t165 356.5z" />
    <glyph glyph-name="uni228E" unicode="&#x228e;" horiz-adv-x="1364" 
d="M1249 389q0 -203 -188 -327q-165 -107 -379 -107t-379 107q-188 124 -188 327v799q0 37 41 37t41 -37v-793q0 -169 164 -271q140 -87 321.5 -87t321.5 86q163 101 163 272v793q0 37 41 37t41 -37v-799zM1090 582q0 -41 -37 -41h-330v-330q0 -37 -41 -37t-41 37v330h-330
q-37 0 -37 41t37 41h330v330q0 37 41 37t41 -37v-330h330q37 0 37 -41z" />
    <glyph glyph-name="uni228F" unicode="&#x228f;" horiz-adv-x="1591" 
d="M1421 41q0 -41 -37 -41h-1175q-39 0 -39 37v1090q0 37 39 37h1175q37 0 37 -41t-37 -41h-1132v-1000h1132q37 0 37 -41z" />
    <glyph glyph-name="uni2290" unicode="&#x2290;" horiz-adv-x="1591" 
d="M1421 37q0 -37 -39 -37h-1175q-37 0 -37 41t37 41h1132v1000h-1132q-37 0 -37 41t37 41h1175q39 0 39 -37v-1090z" />
    <glyph glyph-name="uni2291" unicode="&#x2291;" horiz-adv-x="1591" 
d="M1421 41q0 -41 -37 -41h-1175q-39 0 -39 37v1090q0 37 39 37h1175q37 0 37 -41t-37 -41h-1132v-1000h1132q37 0 37 -41zM1421 -318q0 -41 -37 -41h-1175q-39 0 -39 41t39 41h1175q37 0 37 -41z" />
    <glyph glyph-name="uni2292" unicode="&#x2292;" horiz-adv-x="1591" 
d="M1421 37q0 -37 -39 -37h-1175q-37 0 -37 41t37 41h1132v1000h-1132q-37 0 -37 41t37 41h1175q39 0 39 -37v-1090zM1421 -318q0 -41 -37 -41h-1175q-39 0 -39 41t39 41h1175q37 0 37 -41z" />
    <glyph glyph-name="uni2293" unicode="&#x2293;" horiz-adv-x="1364" 
d="M1239 39q0 -39 -41 -39t-41 39v1104h-950v-1104q0 -39 -41 -39t-41 39v1149q0 37 39 37h1038q37 0 37 -37v-1149z" />
    <glyph glyph-name="uni2294" unicode="&#x2294;" horiz-adv-x="1364" 
d="M1239 39q0 -39 -37 -39h-1038q-39 0 -39 39v1149q0 37 41 37t41 -37v-1106h950v1106q0 37 41 37t41 -37v-1149z" />
    <glyph glyph-name="circleplus" unicode="&#x2295;" horiz-adv-x="1591" 
d="M1307 1093q211 -212 211 -510.5t-211.5 -511t-509.5 -212.5t-510.5 212.5t-212.5 511.5t211.5 510.5t511 211.5t510.5 -212zM837 623h598q-16 241 -187 412.5t-411 186.5v-599zM755 623v599q-241 -16 -412 -187t-186 -412h598zM837 541v-599q239 15 410.5 187t187.5 412
h-598zM755 541h-598q16 -240 187 -411.5t411 -187.5v599z" />
    <glyph glyph-name="uni2296" unicode="&#x2296;" horiz-adv-x="1591" 
d="M1421 582q0 -41 -37 -41h-1175q-39 0 -39 41t39 41h1175q37 0 37 -41zM1307 1093q211 -212 211 -510.5t-211.5 -511t-509.5 -212.5t-510.5 212.5t-212.5 511.5t211.5 510.5t511 211.5t510.5 -212zM1248.5 129.5q187.5 188.5 187.5 453t-187.5 452.5t-452.5 188
t-452.5 -187.5t-187.5 -452.5t188.5 -453.5t452.5 -188.5t451.5 188.5z" />
    <glyph glyph-name="circlemultiply" unicode="&#x2297;" horiz-adv-x="1591" 
d="M1307 1093q211 -212 211 -510.5t-211.5 -511t-509.5 -212.5t-510.5 212.5t-212.5 511.5t211.5 510.5t511 211.5t510.5 -212zM1277 161q159 181 159 421.5t-159 422.5l-423 -423zM1219 1063q-181 160 -423 160t-423 -160l424 -424zM315 1004q-159 -181 -159 -421t158 -422
l423 421zM373 103q182 -162 423.5 -162t423.5 161l-423 423z" />
    <glyph glyph-name="uni2298" unicode="&#x2298;" horiz-adv-x="1591" 
d="M1307 1093q211 -212 211 -510.5t-211.5 -511t-509.5 -212.5t-510.5 212.5t-212.5 511.5t211.5 510.5t511 211.5t510.5 -212zM1219 1063q-181 160 -434.5 160t-441 -187.5t-187.5 -453.5q0 -240 160 -422zM1248.5 129.5q187.5 188.5 187.5 441t-159 434.5l-903 -903
q182 -161 434.5 -161t440 188.5z" />
    <glyph glyph-name="uni2299" unicode="&#x2299;" horiz-adv-x="1578" 
d="M1538 582q0 -312 -218.5 -530.5t-530.5 -218.5t-530.5 218.5t-218.5 530.5t218.5 530.5t530.5 218.5t530.5 -218.5t218.5 -530.5zM1438 582q0 270 -189.5 459.5t-459.5 189.5t-459.5 -189.5t-189.5 -459.5t189.5 -459.5t459.5 -189.5t459.5 189.5t189.5 459.5zM979 582
q0 -79 -55.5 -134.5t-134.5 -55.5t-134.5 55.5t-55.5 134.5t55.5 134.5t134.5 55.5t134.5 -55.5t55.5 -134.5z" />
    <glyph glyph-name="uni229A" unicode="&#x229a;" horiz-adv-x="1578" 
d="M1538 582q0 -312 -218.5 -530.5t-530.5 -218.5t-530.5 218.5t-218.5 530.5t218.5 530.5t530.5 218.5t530.5 -218.5t218.5 -530.5zM1438 582q0 270 -189.5 459.5t-459.5 189.5t-459.5 -189.5t-189.5 -459.5t189.5 -459.5t459.5 -189.5t459.5 189.5t189.5 459.5zM1072 582
q0 -118 -82.5 -200.5t-200.5 -82.5t-200.5 82.5t-82.5 200.5t82.5 200.5t200.5 82.5t200.5 -82.5t82.5 -200.5zM972 582q0 77 -53 130t-130 53t-130 -53t-53 -130t53 -130t130 -53t130 53t53 130z" />
    <glyph glyph-name="uni229D" unicode="&#x229d;" horiz-adv-x="1591" 
d="M1307 1093q211 -212 211 -510.5t-211.5 -511t-509.5 -212.5t-510.5 212.5t-212.5 511.5t211.5 510.5t511 211.5t510.5 -212zM1248.5 129.5q187.5 188.5 187.5 453t-187.5 452.5t-452.5 188t-452.5 -187.5t-187.5 -452.5t188.5 -453.5t452.5 -188.5t451.5 188.5zM1221 582
q0 -41 -37 -41h-775q-39 0 -39 41t39 41h775q37 0 37 -41z" />
    <glyph glyph-name="uni22A2" unicode="&#x22a2;" horiz-adv-x="1251" 
d="M1135 711q0 -41 -37 -41h-901v-631q0 -39 -41 -39t-41 39v1345q0 37 41 37t41 -37v-632h901q37 0 37 -41z" />
    <glyph glyph-name="uni22A3" unicode="&#x22a3;" horiz-adv-x="1251" 
d="M1135 39q0 -39 -41 -39t-41 39v631h-899q-39 0 -39 41t39 41h899v632q0 37 41 37t41 -37v-1345z" />
    <glyph glyph-name="uni22A4" unicode="&#x22a4;" horiz-adv-x="1591" 
d="M1479 1323q0 -41 -37 -41h-604v-1243q0 -39 -41 -39t-41 39v1243h-602q-39 0 -39 41t39 41h1288q37 0 37 -41z" />
    <glyph glyph-name="perpendicular" unicode="&#x22a5;" horiz-adv-x="1591" 
d="M1479 41q0 -41 -37 -41h-1288q-39 0 -39 41t39 41h602v1245q0 37 41 37t41 -37v-1245h604q37 0 37 -41z" />
    <glyph glyph-name="uni22A6" unicode="&#x22a6;" horiz-adv-x="751" 
d="M635 711q0 -41 -37 -41h-401v-631q0 -39 -41 -39t-41 39v1345q0 37 41 37t41 -37v-632h401q37 0 37 -41z" />
    <glyph glyph-name="uni22A7" unicode="&#x22a7;" horiz-adv-x="751" 
d="M635 512q0 -41 -37 -41h-401v-432q0 -39 -41 -39t-41 39v1345q0 37 41 37t41 -37v-434h401q37 0 37 -41t-37 -41h-401v-315h401q37 0 37 -41z" />
    <glyph glyph-name="uni22A8" unicode="&#x22a8;" horiz-adv-x="1251" 
d="M1135 512q0 -41 -37 -41h-901v-432q0 -39 -41 -39t-41 39v1345q0 37 41 37t41 -37v-434h901q37 0 37 -41t-37 -41h-901v-315h901q37 0 37 -41z" />
    <glyph glyph-name="uni22B2" unicode="&#x22b2;" horiz-adv-x="1591" 
d="M1421 25q0 -37 -41 -37q-10 0 -14 2l-1169 553q-27 13 -27 39t20 35l1176 555q4 2 14 2q41 0 41 -37v-1112zM1339 93v976l-1032 -487z" />
    <glyph glyph-name="uni22B3" unicode="&#x22b3;" horiz-adv-x="1591" 
d="M1421 582q0 -26 -18 -35l-1176 -557q-4 -2 -16 -2q-41 0 -41 37v1112q0 37 41 37q12 0 16 -2l1170 -553q24 -11 24 -37zM1284 582l-1032 487v-976z" />
    <glyph glyph-name="uni22B9" unicode="&#x22b9;" horiz-adv-x="1591" 
d="M837 716q0 -39 -41 -39t-41 39v475q0 37 41 37t41 -37v-475zM1441 582q0 -41 -37 -41h-475q-39 0 -39 41t39 41h475q37 0 37 -41zM701 582q0 -41 -37 -41h-475q-39 0 -39 41t39 41h475q37 0 37 -41zM837 -25q0 -39 -41 -39t-41 39v476q0 37 41 37t41 -37v-476z" />
    <glyph glyph-name="uni22BA" unicode="&#x22ba;" horiz-adv-x="1137" 
d="M1019 795q0 -22 -20.5 -41.5t-42.5 -19.5h-320v-1096q0 -23 -22 -41t-45 -18q-46 0 -62 43q-4 11 -5 16v1096h-319q-63 0 -63 75q0 20 21 39.5t42 19.5h773q63 0 63 -73z" />
    <glyph glyph-name="uni22C0" unicode="&#x22c0;" horiz-adv-x="1364" 
d="M1249 -4q0 -41 -41 -41q-26 0 -37 25l-489 1103l-487 -1103q-11 -25 -39 -25q-41 0 -41 41q0 7 530 1204q11 25 38 25t38 -25l526 -1188q2 -5 2 -16z" />
    <glyph glyph-name="uni22C1" unicode="&#x22c1;" horiz-adv-x="1364" 
d="M1249 1184q0 -10 -2 -15l-526 -1189q-11 -25 -38 -25t-38 25q-530 1198 -530 1204q0 41 41 41q28 0 39 -25l487 -1104l489 1104q11 25 37 25q41 0 41 -41z" />
    <glyph glyph-name="uni22C2" unicode="&#x22c2;" horiz-adv-x="1704" 
d="M1569 -352q0 -50 -60 -50q-17 0 -33 16.5t-16 33.5v1205q0 247 -179.5 415t-428.5 168t-428.5 -168t-179.5 -415v-1205q0 -50 -60 -50q-17 0 -33 16.5t-16 33.5v1216q0 289 215.5 485.5t504.5 196.5t501.5 -199t212.5 -483v-1216z" />
    <glyph glyph-name="uni22C3" unicode="&#x22c3;" horiz-adv-x="1704" 
d="M1569 280q0 -284 -212.5 -483t-501.5 -199t-504.5 196.5t-215.5 485.5v1216q0 17 16 33.5t33 16.5q60 0 60 -50v-1205q0 -247 179.5 -415t428.5 -168t428.5 168t179.5 415v1205q0 17 16 33.5t33 16.5q60 0 60 -50v-1216z" />
    <glyph glyph-name="uni22C4" unicode="&#x22c4;" horiz-adv-x="738" 
d="M712 582l-343 -343l-343 343l343 343zM571 582l-202 202l-202 -202l202 -202z" />
    <glyph glyph-name="dotmath" unicode="&#x22c5;" horiz-adv-x="460" 
d="M420 582q0 -79 -55.5 -134.5t-134.5 -55.5t-134.5 55.5t-55.5 134.5t55.5 134.5t134.5 55.5t134.5 -55.5t55.5 -134.5z" />
    <glyph glyph-name="uni22C8" unicode="&#x22c8;" horiz-adv-x="1591" 
d="M1290 127q0 -39 -41 -39q-15 0 -30 15l-422 422l-424 -422q-15 -15 -31 -15q-41 0 -41 39v912q0 37 41 37q18 0 31 -13l424 -424l422 424q13 13 30 13q41 0 41 -37v-912zM1208 228v708l-354 -354zM737 582l-354 354v-708z" />
    <glyph glyph-name="uni22EE" unicode="&#x22ee;" horiz-adv-x="682" 
d="M420.5 -25.5q33.5 -33.5 33.5 -80t-33 -79.5t-80 -33t-80 33t-33 80t33 80t79.5 33t80 -33.5zM420 1347.5q34 -33.5 34 -79t-34 -79t-79.5 -33.5t-79 33.5t-33.5 80t33 79t79 32.5t80 -33.5zM420 660.5q34 -33.5 34 -79t-34 -79t-79.5 -33.5t-79 33.5t-33.5 80t33 79
t79 32.5t80 -33.5z" />
    <glyph glyph-name="uni22EF" unicode="&#x22ef;" 
d="M1103 660.5q34 -33.5 34 -79t-34 -79t-79.5 -33.5t-79 33.5t-33.5 80t33 79t79 32.5t80 -33.5zM420.5 661.5q33.5 -33.5 33.5 -80t-33 -79.5t-80 -33t-80 33t-33 80t33 80t79.5 33t80 -33.5zM1786 660.5q34 -33.5 34 -79t-34 -79t-79.5 -33.5t-79 33.5t-33.5 80t33 79
t79 32.5t80 -33.5z" />
    <glyph glyph-name="uni22F0" unicode="&#x22f0;" 
d="M420.5 -25.5q33.5 -33.5 33.5 -80t-33 -79.5t-80 -33t-80 33t-33 80t33 80t79.5 33t80 -33.5zM1786 1347.5q34 -33.5 34 -79t-34 -79t-79.5 -33.5t-79 33.5t-33.5 80t33 79t79 32.5t80 -33.5zM1103 660.5q34 -33.5 34 -79t-34 -79t-79.5 -33.5t-79 33.5t-33.5 80t33 79
t79 32.5t80 -33.5z" />
    <glyph glyph-name="uni22FF" unicode="&#x22ff;" horiz-adv-x="1547" 
d="M1377 41q0 -41 -39 -41h-1131q-37 0 -37 39v1345q0 37 37 37h1131q39 0 39 -41t-39 -41h-1086v-587h1060q37 0 37 -41t-37 -41h-1060v-588h1086q39 0 39 -41z" />
    <glyph glyph-name="uni2300" unicode="&#x2300;" horiz-adv-x="1591" 
d="M1477 1159q0 -19 -11 -29l-192 -167q125 -164 125 -365q0 -249 -176.5 -426.5t-425 -177.5t-426.5 176l-185 -162q-16 -14 -30 -14q-41 0 -41 43q0 17 10 26l192 168q-122 162 -122 367q0 249 176.5 425.5t422 176.5t427.5 -176l184 162q16 14 31 14q41 0 41 -41z
M1159 969q-151 149 -364 149t-366 -152.5t-153 -367.5q0 -178 103 -311zM1317 598q0 173 -105 309l-780 -682q153 -147 366 -147t366 153t153 367z" />
    <glyph glyph-name="uni2308" unicode="&#x2308;" horiz-adv-x="909" 
d="M864 1565q0 -41 -37 -41h-389v-1929q0 -37 -41 -37t-41 37v1974q0 37 39 37h432q37 0 37 -41z" />
    <glyph glyph-name="uni2309" unicode="&#x2309;" horiz-adv-x="909" 
d="M551 -405q0 -37 -41 -37t-41 37v1929h-389q-37 0 -37 41t37 41h434q37 0 37 -37v-1974z" />
    <glyph glyph-name="uni230A" unicode="&#x230a;" horiz-adv-x="909" 
d="M864 -401q0 -41 -37 -41h-432q-39 0 -39 37v1974q0 37 41 37t41 -37v-1929h389q37 0 37 -41z" />
    <glyph glyph-name="uni230B" unicode="&#x230b;" horiz-adv-x="909" 
d="M551 -405q0 -37 -37 -37h-434q-37 0 -37 41t37 41h389v1929q0 37 41 37t41 -37v-1974z" />
    <glyph glyph-name="uni230C" unicode="&#x230c;" horiz-adv-x="1024" 
d="M907 1380q0 -41 -37 -41h-673v-673q0 -39 -41 -39t-41 39v718q0 37 37 37h718q37 0 37 -41z" />
    <glyph glyph-name="uni230D" unicode="&#x230d;" horiz-adv-x="1024" 
d="M907 666q0 -39 -41 -39t-41 39v673h-673q-37 0 -37 41t37 41h718q37 0 37 -37v-718z" />
    <glyph glyph-name="revlogicalnot" unicode="&#x2310;" horiz-adv-x="1591" 
d="M1421 688q0 -41 -39 -41h-1013v-428q0 -37 -41 -37t-41 37v473q0 37 37 37h1058q39 0 39 -41z" />
    <glyph glyph-name="uni2312" unicode="&#x2312;" horiz-adv-x="1574" 
d="M1496 582q0 -67 -35.5 -67t-35.5 67q0 266 -186 452t-452 186t-452 -186t-186 -452q0 -67 -35.5 -67t-35.5 67q0 296 206.5 502t502.5 206t502.5 -206t206.5 -502z" />
    <glyph glyph-name="uni231C" unicode="&#x231c;" horiz-adv-x="1024" 
d="M907 1380q0 -41 -37 -41h-673v-673q0 -39 -41 -39t-41 39v718q0 37 37 37h718q37 0 37 -41z" />
    <glyph glyph-name="uni231D" unicode="&#x231d;" horiz-adv-x="1024" 
d="M907 666q0 -39 -41 -39t-41 39v673h-673q-37 0 -37 41t37 41h718q37 0 37 -37v-718z" />
    <glyph glyph-name="uni2322" unicode="&#x2322;" horiz-adv-x="1410" 
d="M1410 403q0 -23 -25 -23q-11 0 -19 10q-25 33 -79 95q-217 219 -582 219t-582 -219l-79 -95q-8 -10 -19 -10q-25 0 -25 23q0 8 5 16q115 172 302.5 269t397.5 97t397.5 -97t302.5 -269q5 -8 5 -16z" />
    <glyph glyph-name="uni2323" unicode="&#x2323;" horiz-adv-x="1410" 
d="M1410 762q0 -8 -5 -16q-115 -172 -302.5 -269t-397.5 -97t-397.5 97t-302.5 269q-5 8 -5 16q0 23 25 23q11 0 19 -10q25 -33 79 -95q217 -219 582 -219t582 219l79 95q8 10 19 10q25 0 25 -23z" />
    <glyph glyph-name="angleleft" unicode="&#x2329;" horiz-adv-x="795" 
d="M680 -401q0 -41 -41 -41q-28 0 -37 25q-377 996 -377 1000t377 998q9 25 37 25q41 0 41 -41q0 -9 -371 -983q371 -974 371 -983z" />
    <glyph glyph-name="angleright" unicode="&#x232a;" horiz-adv-x="795" 
d="M567 598q2 -5 2 -15t-374 -1000q-9 -25 -39 -25q-41 0 -41 41q0 3 370 983q-370 980 -370 983q0 41 41 41q30 0 39 -25z" />
    <glyph glyph-name="uni2335" unicode="&#x2335;" horiz-adv-x="1628" 
d="M1464 923l-649 -919l-651 919h132l519 -732l517 732h132z" />
    <glyph glyph-name="uni2373" unicode="&#x2373;" horiz-adv-x="748" 
d="M695 266q0 -114 -48 -194q-58 -96 -164 -96q-133 0 -203 78t-70 212v473q0 86 -41 106q-20 11 -103 11h-14v67l299 23v-685q0 -231 148 -231q102 0 131 139q12 56 12 182v37h53v-122z" />
    <glyph glyph-name="uni2374" unicode="&#x2374;" horiz-adv-x="990" 
d="M184 818q107 142 305 142t323.5 -138.5t125.5 -340t-127.5 -353.5t-329.5 -152q-145 0 -245 113q0 -23 0.5 -79.5t0.5 -84.5q0 -214 -36 -342h-149q37 173 37 311v589q0 209 95 335zM775 406q0 187 -65 326q-84 180 -250 180q-108 0 -166 -84.5t-58 -197.5v-344
q0 -110 89 -183t201 -73q249 0 249 376z" />
    <glyph glyph-name="uni2375" unicode="&#x2375;" horiz-adv-x="1328" 
d="M1276 430q0 -173 -79 -302q-93 -152 -255 -152q-185 0 -278 219q-93 -219 -278 -219q-162 0 -255 152q-79 129 -79 302q0 245 124.5 386t365.5 144v-48q-327 -10 -327 -470q0 -412 202 -412q135 0 224 241q-67 140 -67 291q0 219 90 219t90 -219q0 -151 -67 -291
q89 -241 224 -241q202 0 202 412q0 460 -327 470v48q241 -3 365.5 -144.5t124.5 -385.5z" />
    <glyph glyph-name="uni237A" unicode="&#x237a;" horiz-adv-x="1250" 
d="M1197 190q0 -84 -46.5 -143t-128.5 -59q-125 0 -173 162q-161 -174 -357 -174t-318 143.5t-122 341t126.5 348.5t321.5 151q160 0 255 -98q75 -78 119 -232q9 -34 58 -273q49 97 77.5 247t28.5 274q0 72 43 72q47 0 47 -72q0 -125 -54.5 -299t-124.5 -293
q49 -233 118 -233q79 0 79 173l-3 85h54v-121zM467 912q-135 0 -200 -121q-52 -96 -52 -262.5t67 -311.5q87 -187 245 -187t307 177l-61 266q-46 196 -106 298q-81 141 -200 141z" />
    <glyph glyph-name="uni2395" unicode="&#x2395;" horiz-adv-x="1591" 
d="M1488 39q0 -39 -37 -39h-1308q-39 0 -39 39v1310q0 37 39 37h1308q37 0 37 -37v-1310zM1406 82v1222h-1220v-1222h1220z" />
    <glyph glyph-name="uni2396" unicode="&#x2396;" horiz-adv-x="700" 
d="M621 1344l-468 -698h-22l210 698h280z" />
    <glyph glyph-name="uni239C" unicode="&#x239c;" horiz-adv-x="1024" 
d="M225 -442h-120v2048h120v-2048zM0 1606zM1024 -442z" />
    <glyph glyph-name="uni239F" unicode="&#x239f;" horiz-adv-x="1024" 
d="M919 -442h-120v2048h120v-2048zM0 1606zM1024 -442z" />
    <glyph glyph-name="uni23A1" unicode="&#x23a1;" horiz-adv-x="1024" 
d="M864 642q55 0 55 -60t-55 -60h-639v-964h-120v1029q0 55 59 55h700zM0 1606zM1024 -442z" />
    <glyph glyph-name="uni23A4" unicode="&#x23a4;" horiz-adv-x="1024" 
d="M919 -442h-120v964h-639q-55 0 -55 60t55 60h700q22 0 40.5 -17t18.5 -40v-1027zM0 1606zM1024 -442z" />
    <glyph glyph-name="uni23AE" unicode="&#x23ae;" horiz-adv-x="1329" 
d="M795 -442h-216v2048h216v-2048zM0 1606zM1329 -442z" />
    <glyph glyph-name="uni23B0" unicode="&#x23b0;" horiz-adv-x="1024" 
d="M916 1606q37 0 37 -25t-39 -32q-29 -2 -59 -5q-167 -28 -241.5 -123t-74.5 -266v-1216q0 -208 -107.5 -294.5t-320.5 -86.5q-40 0 -40 27q0 24 39 31q29 2 59 5q165 28 225 129q48 82 48 261v1215q0 380 474 380z" />
    <glyph glyph-name="uni23B7" unicode="&#x23b7;" horiz-adv-x="1364" 
d="M1405 1565q0 -8 -2 -14l-610 -1975q-6 -18 -56 -18q-13 0 -18 12l-408 897q-129 -98 -135 -98q-29 0 -29 29q0 9 9 16l243 184q8 6 18.5 6t16.5 -14l350 -769l545 1766q6 19 35 19q41 0 41 -41z" />
    <glyph glyph-name="uni23B8" unicode="&#x23b8;" horiz-adv-x="1591" 
d="M282 -4q0 -39 -41 -39t-41 39v1175q0 37 41 37t41 -37v-1175z" />
    <glyph glyph-name="uni23B9" unicode="&#x23b9;" horiz-adv-x="1591" 
d="M1391 -4q0 -39 -41 -39t-41 39v1175q0 37 41 37t41 -37v-1175z" />
    <glyph glyph-name="uni23BE" unicode="&#x23be;" horiz-adv-x="577" 
d="M437 1050q40 0 40 -30.5t-44 -30.5h-272v-946q0 -44 -30.5 -44t-30.5 45v961q0 30 10.5 37.5t34.5 7.5h292z" />
    <glyph glyph-name="uni23BF" unicode="&#x23bf;" horiz-adv-x="577" 
d="M433 61q44 0 44 -30.5t-44 -30.5h-288q-30 0 -37.5 10.5t-7.5 34.5v961q0 45 30.5 45t30.5 -44v-946h272z" />
    <glyph glyph-name="uni23CC" unicode="&#x23cc;" horiz-adv-x="577" 
d="M477 45q0 -30 -10.5 -37.5t-34.5 -7.5h-289q-43 0 -43 30.5t43 30.5h273v946q0 44 30.5 44t30.5 -45v-961z" />
    <glyph glyph-name="uni23D0" unicode="&#x23d0;" horiz-adv-x="1024" 
d="M553 -401q0 -41 -41 -41t-41 41v1966q0 41 41 41t41 -41v-1966z" />
    <glyph glyph-name="uni2400" unicode="&#x2400;" 
d="M2016 1350h-98v126h-126v98h224v-224zM1664 1476h-224v98h224v-98zM2016 998h-98v224h98v-224zM1312 1476h-224v98h224v-98zM2016 646h-98v224h98v-224zM960 1476h-224v98h224v-98zM2016 294h-98v224h98v-224zM608 1476h-224v98h224v-98zM2016 -58h-98v224h98v-224z
M256 1476h-126v-126h-98v224h224v-98zM2016 -410h-224v98h126v126h98v-224zM130 998h-98v224h98v-224zM1664 -410h-224v98h224v-98zM130 646h-98v224h98v-224zM1312 -410h-224v98h224v-98zM130 294h-98v224h98v-224zM960 -410h-224v98h224v-98zM130 -58h-98v224h98v-224z
M608 -410h-224v98h224v-98zM256 -410h-224v224h98v-126h126v-98z" />
    <glyph glyph-name="uni2403" unicode="&#x2403;" 
d="M1706 893q0 -283 -328 -612l-138 -135q-76 -80 -110 -141t-46 -92l-21 -56q-14 -25 -39 -25t-34.5 21t-29 70t-57 105.5t-234.5 252.5q-90 89 -163 185q-164 215 -164 420.5t80.5 342.5t259.5 137q109 0 201 -63.5t141 -165.5q50 104 140.5 166.5t201.5 62.5
q180 0 260 -136t80 -337z" />
    <glyph glyph-name="uni2404" unicode="&#x2404;" 
d="M1706 578q0 -15 -11 -27l-119 -116q-269 -280 -467 -651q-15 -35 -51 -99q-13 -19 -34.5 -19t-34.5 19l-51 99q-197 370 -467 651q-41 37 -119 116q-10 11 -10 26.5t10 28.5l79 74q76 74 165 181q190 228 335 497q17 39 58 112q14 19 35 19t34 -19l58 -112
q145 -270 335 -497q89 -106 165 -181q28 -23 79 -74q11 -13 11 -28z" />
    <glyph glyph-name="uni2405" unicode="&#x2405;" 
d="M1692 620q72 -115 72 -269.5t-98 -275t-252 -120.5q-95 0 -170.5 49t-75.5 139h-102q0 -131 28.5 -252t28.5 -116q0 -41 -38 -41h-122q-37 0 -37 41q0 -5 28 116t28 252h-102q0 -90 -75.5 -139t-170.5 -49q-154 0 -252 120.5t-98 275t72 269.5q83 134 225 134
q120 0 190 -88l48 94q-158 118 -158 330q0 158 103.5 278.5t259.5 120.5t259.5 -120.5t103.5 -278.5q0 -212 -158 -330l48 -94q70 88 190 88q142 0 225 -134z" />
    <glyph glyph-name="uni2406" unicode="&#x2406;" 
d="M1588 760q118 -163 118 -340t-47 -295q-68 -170 -222 -170q-103 0 -178 42q-92 51 -92 146h-102q0 -136 28.5 -254.5t28.5 -113.5q0 -41 -37 -41h-121q-39 0 -39 41q0 1 2 8q56 184 56 360h-103q0 -95 -91 -146q-74 -42 -177 -42q-151 0 -210.5 140.5t-59.5 320.5
t118 343q69 96 248 263q134 125 236 345l43 97q12 25 37 25t39 -25q16 -41 50 -122q87 -190 226 -320q182 -171 249 -262z" />
    <glyph glyph-name="uni2407" unicode="&#x2407;" 
d="M1446 582q0 -176 -123 -299t-299 -123t-299 123t-123 299t123 299t299 123t299 -123t123 -299z" />
    <glyph glyph-name="uni2409" unicode="&#x2409;" 
d="M1879 582q0 -356 -249.5 -605.5t-606 -249.5t-605.5 249t-249 606t249 606t605.5 249t606 -249.5t249.5 -605.5zM1736 582q0 297 -207.5 504.5t-504.5 207.5t-504.5 -207.5t-207.5 -504.5t207.5 -504.5t504.5 -207.5t504.5 207.5t207.5 504.5z" />
    <glyph glyph-name="uni2412" unicode="&#x2412;" 
d="M1686 279l-662 -687l-662 687l69 -10l533 -309v1244l-533 -309l-69 -10l662 687l662 -687l-69 10l-533 309v-1244l533 309z" />
    <glyph glyph-name="uni2414" unicode="&#x2414;" 
d="M1564 1365h-147v-1707h-99v1707h-205v-1707h-101v967q-172 7 -267 38q-140 46 -206 162q-55 97 -55 218q0 247 218 358q108 55 277 55h585v-91z" />
    <glyph glyph-name="uni2417" unicode="&#x2417;" 
d="M964 1572h120v-1462l533 309l69 10l-662 -687l-662 687l69 -10l533 -309v1462zM1619 -442h-1190v120h1190v-120z" />
    <glyph glyph-name="uni2418" unicode="&#x2418;" 
d="M1084 -408h-120v1612l-533 -309l-69 -10l662 687l662 -687l-69 10l-533 309v-1612z" />
    <glyph glyph-name="uni2419" unicode="&#x2419;" 
d="M964 1572h120v-1612l533 309l69 10l-662 -687l-662 687l69 -10l533 -309v1612z" />
    <glyph glyph-name="uni241A" unicode="&#x241a;" 
d="M34 522v120h1612l-309 533l-10 69l687 -662l-687 -662l10 69l309 533h-1612z" />
    <glyph glyph-name="uni241B" unicode="&#x241b;" 
d="M2014 522h-1612l309 -533l10 -69l-687 662l687 662l-10 -69l-309 -533h1612v-120z" />
    <glyph glyph-name="uni241D" unicode="&#x241d;" 
d="M2014 582l-687 -662l10 69l309 533h-1244l309 -533l10 -69l-687 662l687 662l-10 -69l-309 -533h1244l-309 533l-10 69z" />
    <glyph glyph-name="uni2445" unicode="&#x2445;" horiz-adv-x="1628" 
d="M1406 250l-592 342l592 342v-684zM814 592l-592 -342v684zM1307 421v342l-296 -174zM617 589l-296 174v-342z" />
    <glyph glyph-name="uni2449" unicode="&#x2449;" horiz-adv-x="1804" 
d="M1582 0h-196v432h196v-432zM1186 0h-382v432h382v-432zM604 0h-382v432h382v-432z" />
    <glyph glyph-name="SF110000" unicode="&#x2502;" 
d="M1098 -442h-148v2048h148v-2048z" />
    <glyph glyph-name="uni2503" unicode="&#x2503;" 
d="M1122 -442h-197v2048h197v-2048z" />
    <glyph glyph-name="SF030000" unicode="&#x2510;" 
d="M1098 -442h-148v950h-950v148h1098v-1098z" />
    <glyph glyph-name="uni2511" unicode="&#x2511;" 
d="M1098 -442h-148v925h-950v198h1098v-1123z" />
    <glyph glyph-name="uni2512" unicode="&#x2512;" 
d="M1123 -442h-198v950h-925v148h1123v-1098z" />
    <glyph glyph-name="uni2513" unicode="&#x2513;" 
d="M1123 -442h-198v925h-925v198h1123v-1123z" />
    <glyph glyph-name="SF080000" unicode="&#x251c;" 
d="M2048 508h-950v-950h-148v2048h148v-950h950v-148z" />
    <glyph glyph-name="uni251D" unicode="&#x251d;" 
d="M2048 483h-950v-925h-148v2048h148v-925h950v-198z" />
    <glyph glyph-name="uni251E" unicode="&#x251e;" 
d="M2048 508h-950v-950h-148v1098h-25v950h197v-950h926v-148z" />
    <glyph glyph-name="uni251F" unicode="&#x251f;" 
d="M2048 508h-926v-950h-197v950h25v1098h148v-950h950v-148z" />
    <glyph glyph-name="uni2520" unicode="&#x2520;" 
d="M2048 508h-926v-950h-197v2048h197v-950h926v-148z" />
    <glyph glyph-name="uni2521" unicode="&#x2521;" 
d="M2048 490h-950v-932h-148v925h-25v1123h197v-925h926v-191z" />
    <glyph glyph-name="uni2522" unicode="&#x2522;" 
d="M2048 483h-926v-925h-197v1123h25v925h148v-925h950v-198z" />
    <glyph glyph-name="uni2523" unicode="&#x2523;" 
d="M2048 483h-926v-925h-197v2048h197v-925h926v-198z" />
    <glyph glyph-name="SF090000" unicode="&#x2524;" 
d="M1098 -442h-148v950h-950v148h950v950h148v-2048z" />
    <glyph glyph-name="uni2525" unicode="&#x2525;" 
d="M1098 -442h-148v925h-950v198h950v925h148v-2048z" />
    <glyph glyph-name="uni2526" unicode="&#x2526;" 
d="M1123 656h-25v-1098h-148v950h-950v148h925v950h198v-950z" />
    <glyph glyph-name="uni2527" unicode="&#x2527;" 
d="M1123 -442h-198v950h-925v148h950v950h148v-1098h25v-950z" />
    <glyph glyph-name="uni2528" unicode="&#x2528;" 
d="M1123 -442h-198v950h-925v148h925v950h198v-2048z" />
    <glyph glyph-name="uni2529" unicode="&#x2529;" 
d="M1123 483h-25v-925h-148v925h-950v198h925v925h198v-1123z" />
    <glyph glyph-name="uni252A" unicode="&#x252a;" 
d="M1123 -442h-198v925h-925v198h950v925h148v-925h25v-1123z" />
    <glyph glyph-name="uni252B" unicode="&#x252b;" 
d="M1123 -442h-198v925h-925v198h925v925h198v-2048z" />
    <glyph glyph-name="SF060000" unicode="&#x252c;" 
d="M2048 508h-950v-950h-148v950h-950v148h2048v-148z" />
    <glyph glyph-name="uni252D" unicode="&#x252d;" 
d="M2048 508h-950v-950h-148v925h-950v198h950v-25h1098v-148z" />
    <glyph glyph-name="uni252E" unicode="&#x252e;" 
d="M2048 483h-950v-925h-148v950h-950v148h1098v25h950v-198z" />
    <glyph glyph-name="uni252F" unicode="&#x252f;" 
d="M2048 483h-950v-925h-148v925h-950v198h2048v-198z" />
    <glyph glyph-name="uni2530" unicode="&#x2530;" 
d="M2048 508h-925v-950h-198v950h-925v148h2048v-148z" />
    <glyph glyph-name="uni2531" unicode="&#x2531;" 
d="M2048 508h-925v-950h-198v925h-925v198h1123v-25h925v-148z" />
    <glyph glyph-name="uni2532" unicode="&#x2532;" 
d="M2048 483h-925v-925h-198v950h-925v148h925v25h1123v-198z" />
    <glyph glyph-name="uni2533" unicode="&#x2533;" 
d="M2048 483h-925v-925h-198v925h-925v198h2048v-198z" />
    <glyph glyph-name="SF070000" unicode="&#x2534;" 
d="M2048 508h-2048v148h950v950h148v-950h950v-148z" />
    <glyph glyph-name="uni2535" unicode="&#x2535;" 
d="M2048 508h-1098v-25h-950v198h950v925h148v-950h950v-148z" />
    <glyph glyph-name="uni2536" unicode="&#x2536;" 
d="M2048 483h-950v25h-1098v148h950v950h148v-925h950v-198z" />
    <glyph glyph-name="uni2537" unicode="&#x2537;" 
d="M2048 483h-2048v198h950v925h148v-925h950v-198z" />
    <glyph glyph-name="uni2538" unicode="&#x2538;" 
d="M2048 508h-2048v148h925v950h198v-950h925v-148z" />
    <glyph glyph-name="uni2539" unicode="&#x2539;" 
d="M2048 508h-925v-25h-1123v198h925v925h198v-950h925v-148z" />
    <glyph glyph-name="uni253A" unicode="&#x253a;" 
d="M2048 483h-1123v25h-925v148h925v950h198v-925h925v-198z" />
    <glyph glyph-name="uni253B" unicode="&#x253b;" 
d="M2048 483h-2048v198h925v925h198v-925h925v-198z" />
    <glyph glyph-name="SF240000" unicode="&#x2551;" 
d="M950 -442h-148v2048h148v-2048zM1246 -442h-148v2048h148v-2048z" />
    <glyph glyph-name="SF360000" unicode="&#x255e;" 
d="M2048 360h-950v-802h-148v2048h148v-802h950v-148h-950v-148h950v-148z" />
    <glyph glyph-name="SF190000" unicode="&#x2561;" 
d="M1098 -442h-148v802h-950v148h950v148h-950v148h950v802h148v-2048z" />
    <glyph glyph-name="uni2571" unicode="&#x2571;" 
d="M2158 1606l-2048 -2048h-220l2048 2048h220z" />
    <glyph glyph-name="uni2572" unicode="&#x2572;" 
d="M2158 -442h-220l-2048 2048h220z" />
    <glyph glyph-name="uni2573" unicode="&#x2573;" 
d="M2158 -442h-220l-914 914l-914 -914h-220l1024 1024l-1024 1024h220l914 -914l914 914h220l-1024 -1024z" />
    <glyph glyph-name="uni25B3" unicode="&#x25b3;" horiz-adv-x="1578" 
d="M1530 18h-1482l741 1191zM1350 118l-561 902l-561 -902h1122z" />
    <glyph glyph-name="uni25B5" unicode="&#x25b5;" horiz-adv-x="738" 
d="M695 334h-652l326 524zM515 434l-146 235l-146 -235h292z" />
    <glyph glyph-name="uni25B7" unicode="&#x25b7;" horiz-adv-x="1356" 
d="M1308 582l-1191 -741v1482zM1119 582l-902 561v-1122z" />
    <glyph glyph-name="uni25B9" unicode="&#x25b9;" horiz-adv-x="645" 
d="M597 582l-524 -326v652zM408 582l-235 146v-292z" />
    <glyph glyph-name="uni25BB" unicode="&#x25bb;" horiz-adv-x="1888" 
d="M1808 582l-1606 -564v1128zM1506 582l-1204 423v-846z" />
    <glyph glyph-name="uni25BD" unicode="&#x25bd;" horiz-adv-x="1578" 
d="M1530 1209l-741 -1191l-741 1191h1482zM1350 1109h-1122l561 -902z" />
    <glyph glyph-name="uni25BF" unicode="&#x25bf;" horiz-adv-x="738" 
d="M695 858l-326 -524l-326 524h652zM515 758h-292l146 -235z" />
    <glyph glyph-name="uni25C1" unicode="&#x25c1;" horiz-adv-x="1356" 
d="M1239 -159l-1191 741l1191 741v-1482zM1139 21v1122l-902 -561z" />
    <glyph glyph-name="uni25C3" unicode="&#x25c3;" horiz-adv-x="645" 
d="M572 256l-524 326l524 326v-652zM472 436v292l-235 -146z" />
    <glyph glyph-name="uni25C5" unicode="&#x25c5;" horiz-adv-x="1888" 
d="M1686 18l-1606 564l1606 564v-1128zM1586 159v846l-1204 -423z" />
    <glyph glyph-name="uni25C7" unicode="&#x25c7;" horiz-adv-x="1578" 
d="M1568 582l-779 -779l-779 779l779 779zM1427 582l-638 638l-638 -638l638 -638z" />
    <glyph glyph-name="uni25C9" unicode="&#x25c9;" horiz-adv-x="1578" 
d="M1222 582q0 -180 -126.5 -306.5t-306.5 -126.5t-306.5 126.5t-126.5 306.5t126.5 306.5t306.5 126.5t306.5 -126.5t126.5 -306.5zM1538 582q0 -312 -218.5 -530.5t-530.5 -218.5t-530.5 218.5t-218.5 530.5t218.5 530.5t530.5 218.5t530.5 -218.5t218.5 -530.5zM1438 582
q0 270 -189.5 459.5t-459.5 189.5t-459.5 -189.5t-189.5 -459.5t189.5 -459.5t459.5 -189.5t459.5 189.5t189.5 459.5z" />
    <glyph glyph-name="lozenge" unicode="&#x25ca;" horiz-adv-x="1578" 
d="M1378 582l-589 -779l-589 779l589 779zM1253 582l-464 613l-464 -613l464 -613z" />
    <glyph glyph-name="circle" unicode="&#x25cb;" horiz-adv-x="1578" 
d="M1538 582q0 -312 -218.5 -530.5t-530.5 -218.5t-530.5 218.5t-218.5 530.5t218.5 530.5t530.5 218.5t530.5 -218.5t218.5 -530.5zM1438 582q0 270 -189.5 459.5t-459.5 189.5t-459.5 -189.5t-189.5 -459.5t189.5 -459.5t459.5 -189.5t459.5 189.5t189.5 459.5z" />
    <glyph glyph-name="uni25CC" unicode="&#x25cc;" horiz-adv-x="1174" 
d="M1021 896q0 -23 -18 -38t-41 -15t-38 18t-15 41t17.5 38t41 15t38.5 -18t15 -41zM833 953q-14 0 -27 7q-29 17 -29 49q0 15 8 28q16 28 49 28q14 0 28 -8q28 -16 28 -39.5t-8 -36.5q-16 -28 -49 -28zM1106 751q0 -56 -56 -56t-56 56t56 56t56 -56zM617 1077q9 47 50 47
q7 0 15 -2q47 -8 47 -49q0 -7 -1 -15q-9 -47 -50 -47q-7 0 -15 1q-47 9 -47 50q0 7 1 15zM1136 582q0 -56 -56 -56t-56 56t56 56t56 -56zM446 1058q-1 8 -1 15q0 41 47 49q8 2 15 2q41 0 49 -47q2 -8 2 -15q0 -41 -47 -50q-8 -1 -15 -1q-41 0 -50 47zM1050 357q-56 0 -56 56
t56 56t56 -56t-56 -56zM389 1037q8 -13 8 -36.5t-21 -35.5t-35 -12q-33 0 -49 28q-8 13 -8 28q0 32 29 48q13 8 27 8q33 0 49 -28zM967.5 209q-23.5 0 -41 15t-17.5 38t15 41t38 18t41 -15t18 -38t-15 -41t-38.5 -18zM212 843q-23 0 -41 15t-18 38t15 41t38.5 18t41 -15
t17.5 -38t-15 -41t-38 -18zM882 183q8 -13 8 -36.5t-21 -35.5t-35 -12q-33 0 -49 28q-8 13 -8 28q0 32 29 49q13 7 27 7q33 0 49 -28zM124 695q-56 0 -56 56t56 56t56 -56t-56 -56zM617 87q-1 8 -1 15q0 41 47 50q8 1 15 1q41 0 50 -47q1 -8 1 -15q0 -41 -47 -49
q-8 -2 -15 -2q-41 0 -50 47zM150 582q0 -56 -56 -56t-56 56t56 56t56 -56zM446 106q9 47 50 47q7 0 15 -1q47 -9 47 -50q0 -7 -2 -15q-8 -47 -49 -47q-7 0 -15 2q-47 8 -47 49q0 7 1 15zM180 413q0 -56 -56 -56t-56 56t56 56t56 -56zM340 99q-14 0 -27 8q-29 16 -29 48
q0 15 8 28q16 28 49 28q14 0 35 -12t21 -35.5t-8 -36.5q-16 -28 -49 -28zM265 262q0 -23 -17.5 -38t-41 -15t-38.5 18t-15 41t18 38t41 15t38 -18t15 -41z" />
    <glyph glyph-name="openbullet" unicode="&#x25e6;" horiz-adv-x="738" 
d="M698 582q0 -137 -96 -233t-233 -96t-233 96t-96 233t96 233t233 96t233 -96t96 -233zM598 582q0 96 -66.5 162.5t-162.5 66.5t-162.5 -66.5t-66.5 -162.5t66.5 -162.5t162.5 -66.5t162.5 66.5t66.5 162.5z" />
    <glyph glyph-name="uni25EF" unicode="&#x25ef;" 
d="M2008 582q0 -410 -287 -697t-697 -287t-697 287t-287 697t287 697t697 287t697 -287t287 -697zM1908 582q0 368 -258 626t-626.5 258t-626 -257.5t-257.5 -626.5t257.5 -626.5t626 -257.5t626.5 258t258 626z" />
    <glyph glyph-name="spade" unicode="&#x2660;" horiz-adv-x="1414" 
d="M1225 855q89 -115 89 -232.5t-79.5 -198t-188.5 -80.5t-192 67t-129 169h-4v-26q0 -491 472 -506l9 -48h-990l9 48q472 15 472 506v26h-4q-46 -102 -129 -169t-192 -67t-188.5 80.5t-79.5 198t89 232.5q46 61 185.5 188t205.5 217q95 127 127 276q32 -149 127 -276
q66 -90 205.5 -217t185.5 -188z" />
    <glyph glyph-name="uni2661" unicode="&#x2661;" horiz-adv-x="1560" 
d="M1365 1445q95 -91 95 -227.5t-88 -294.5q-55 -99 -200.5 -282.5t-220.5 -301.5q-123 -192 -171 -370q-48 178 -171 370q-75 118 -220.5 301.5t-200.5 282.5q-88 158 -88 294.5t95 227.5t228.5 91t230.5 -92t126 -222q29 130 126 222t230.5 92t228.5 -91zM1294 951
q84 146 84 257.5t-71 178.5t-176 67q-156 0 -240 -165q-10 -19 -33 -91t-78 -72t-80 78q-8 28 -31 85q-84 165 -240 165q-105 0 -176 -67t-71 -178.5t84 -257.5q50 -87 164 -231q258 -326 350 -519q92 193 350 519q114 144 164 231z" />
    <glyph glyph-name="uni2662" unicode="&#x2662;" horiz-adv-x="1346" 
d="M1246 754q-327 -370 -573 -782q-246 412 -573 782q327 370 573 782q246 -412 573 -782zM1137 754q-256 298 -464 626q-208 -328 -464 -626q256 -298 464 -626q208 328 464 626z" />
    <glyph glyph-name="club" unicode="&#x2663;" horiz-adv-x="1738" 
d="M1342 1033q126 0 211 -106.5t85 -245.5t-101 -240t-240 -101t-248.5 86t-162.5 212h-4v-52q0 -246 161 -403q65 -63 161 -96q51 -17 184 -43l11 -44h-1060l12 44q132 26 183 43q96 33 161 96q161 157 161 403v52h-4q-53 -126 -162.5 -212t-248.5 -86t-240 101t-101 240
t85 245.5t211 106.5q88 0 205 -63l5 4q-85 130 -85 224q0 145 101 241.5t247 96.5t247 -96.5t101 -241.5q0 -94 -85 -224l5 -4q117 63 205 63z" />
    <glyph glyph-name="uni268A" unicode="&#x268a;" 
d="M1724 636h-1400v192h1400v-192z" />
    <glyph glyph-name="uni268C" unicode="&#x268c;" 
d="M1724 424h-1400v192h1400v-192zM1724 848h-1400v192h1400v-192z" />
    <glyph glyph-name="uni26AA" unicode="&#x26aa;" horiz-adv-x="1218" 
d="M1178 582q0 -237 -166 -403t-403 -166t-403 166t-166 403t166 403t403 166t403 -166t166 -403zM1078 582q0 196 -136.5 332.5t-332.5 136.5t-332.5 -136.5t-136.5 -332.5t136.5 -332.5t332.5 -136.5t332.5 136.5t136.5 332.5z" />
    <glyph glyph-name="uni26AB" unicode="&#x26ab;" horiz-adv-x="1218" 
d="M1178 582q0 -237 -166 -403t-403 -166t-403 166t-166 403t166 403t403 166t403 -166t166 -403z" />
    <glyph glyph-name="uni26AC" unicode="&#x26ac;" horiz-adv-x="946" 
d="M906 582q0 -180 -126.5 -306.5t-306.5 -126.5t-306.5 126.5t-126.5 306.5t126.5 306.5t306.5 126.5t306.5 -126.5t126.5 -306.5zM806 582q0 139 -97 236t-236 97t-236 -97t-97 -236t97 -236t236 -97t236 97t97 236z" />
    <glyph glyph-name="uni26B9" unicode="&#x26b9;" horiz-adv-x="1713" 
d="M1623 498h-658l329 -570l-108 -63l-329 570l-330 -570l-108 63l329 570h-658v125h658l-329 570l108 63l329 -571l330 571l108 -63l-329 -570h658v-125z" />
    <glyph glyph-name="uni26D2" unicode="&#x26d2;" 
d="M1948 582q0 -385 -269.5 -654.5t-654.5 -269.5t-654.5 269.5t-269.5 654.5t269.5 654.5t654.5 269.5t654.5 -269.5t269.5 -654.5zM1024 1294q-245 0 -436 -147l326 -326v-129h-129l-326 326q-147 -191 -147 -436t148 -437l1001 1001q-192 148 -437 148zM1736 582
q0 245 -148 437l-1001 -1001q192 -148 437 -148t436 147l-326 326v129h129l326 -326q147 191 147 436z" />
    <glyph glyph-name="uni26EC" unicode="&#x26ec;" 
d="M1206 1283q75 -75 75 -180.5t-76.5 -180t-180.5 -74.5t-180.5 74.5t-76.5 180t75 180.5t182 75t182 -75zM1737.5 384.5q75.5 -75.5 75.5 -180t-75 -179.5t-180 -75t-180 76t-75 182t74 179t179.5 73t181 -75.5zM672.5 385.5q76.5 -74.5 76.5 -178.5t-78.5 -180.5
t-181.5 -76.5t-178.5 75.5t-75.5 179.5t75.5 179.5t180.5 75.5t181.5 -74.5z" />
    <glyph glyph-name="uni2981" unicode="&#x2981;" horiz-adv-x="946" 
d="M906 582q0 -180 -126.5 -306.5t-306.5 -126.5t-306.5 126.5t-126.5 306.5t126.5 306.5t306.5 126.5t306.5 -126.5t126.5 -306.5z" />
  </font>
</defs>
</svg>
